imdb
rating

7.5
The Nerdist

The Nerdist

Talk

Full description

The Nerdist s02e06 hdtv x264-sys.mp4

Size 357.245 MB   6 seeders     Added 2013-05-05 12:01:53

Stream torrent
Starting‥ You need BitLord! Get it from 1BitLord.com
To download or stream you need BitLord. Visit them at BitLord.com
							Psst – guys – look! Chris Hardwick is right here on your television set! He’s here to bring you “The Nerdist” show, and it’s chock full of delicacies to put in your eye holes!
And speaking of eye-holes – we’re talking to two big stars of television and film on this show! We bet you’ve seen Jack McBrayer and Eliza Dushku with your very own eye-holes, haven’t you?
Jack McBrayer talks to “The Nerdist” boys about “30 Rock” and Disney’s love letter to video games –”Wreck-It-Ralph.”
Eliza reminds us that we’re all mortal and growing older by the second when she talks about the 20 year anniversary of “True Lies.” Plus, we’ll have another installation of the wildly popular British guessing game: BBC(een) It, and get a look at Jonah Ray’s spin-off sitcom called “Jonah Alone.”
But don’t get too comfortable – Kumail Nanjiani and Emily Gordon storm “The Nerdist” set demanding a rematch of the Nerdlywed Game. Can they defeat Matt and Jonah? You’ll find out of you watch this episode – and you’ll also be treated to the operatic comedy of Joe Keckler.
This is one show you don’t want to miss!
 Video
 ID : 1
 Format : AVC
 Format/Info : Advanced Video Codec
 Format profile : High@L3.1
 Format settings, CABAC : Yes
 Format settings, ReFrames : 5 frames
 Codec ID : avc1
 Codec ID/Info : Advanced Video Coding
 Duration : 43mn 28s
 Bit rate : 983 Kbps
 Maximum bit rate : 4 535 Kbps
 Width : 720 pixels
 Height : 406 pixels
 Display aspect ratio : 16:9
 Frame rate mode : Constant
 Frame rate : 29.970 fps
 Color space : YUV
 Chroma subsampling : 4:2:0
 Bit depth : 8 bits
 Scan type : Progressive
 Bits/(Pixel*Frame) : 0.112
 Stream size : 306 MiB (90%)
 Writing library : x264 core 130 r2273 b3065e6
 Audio
 ID : 2
 Format : AAC
 Format/Info : Advanced Audio Codec
 Format profile : LC
 Codec ID : 40
 Duration : 43mn 28s
 Bit rate mode : Variable
 Bit rate : 108 Kbps
 Maximum bit rate : 172 Kbps
 Channel(s) : 2 channels
 Channel positions : Front: L R
 Sampling rate : 48.0 KHz
 Compression mode : Lossy
 Delay relative to video : 67ms
 Stream size : 33.6 MiB (10%)
						
The Nerdist s02e06 hdtv x264-sys.mp4 357.245 MB
Gathering some info...

Register and log in Isohunt and see no captcha anymore!

4000 symbols left
Hash e44c267ad0e8df87c98cfe81e6efb3e1986b313a

Related torrents for "The Nerdist s02e06 hdtv x264-sys.mp4"

Torrent search:

season 02 x264 hdtv episode 06