Barbie Diaries(2006)DVDRip[Hindi-Eng]AC3-DGrea8

Size 872.301 MB   10 seeders     Added 2013-05-05 14:07:35

Stream torrent
Starting‚Ä• You need BitLord! Get it from BitLord.com
To download or stream you need BitLord. Visit them at BitLord.com
1st On Net Org. DVD Hindi Audio 
Rating:-4.5/10Barbie is a teenage girl who wishes upon on a diary with seems to grant her wishes and she falls in love with some random kid. Peace out.
Kelly Sheridan.............Barbie (voice)
Sarah Edmondson............Courtney (voice)
Venus Terzo................Tia / Passing Girl 2 (voice)
Chiara Zanni...............Raquelle (voice)
Matt Hill..................Kevin (voice)
Andrew Francis.............Todd (voice)
Maryke Hendrikse...........Regen (voice)
Anna Cummer................Dawn (voice)
Heather Doerksen...........Stephanie (voice)
Joseph May.................Mr. Wexler / Popular Boy 2 (voice) (as Joe May)
Ashleigh Ball..............The DJ (voice)
Michael Daingerfield.......Mr. Bennett / Stage Manager (voice) (as Michael Dangerfield)
Tabitha St. Germain........Other Sales Girl (voice)
Cathy Weseluck.............Principal Peters / Passing Girl 1 (voice)
Director:Eric Fogel, Kallan Kagan
Stars:Kelly Sheridan, Sarah Edmondson, Venus Terzo
Release Date:9 May 2006 (USA)
Genres:Animation | Family
Video
ID                               : 1
Format                           : AVC
Duration                         : 1h 10mn
Width                            : 720 pixels
Height                           : 576 pixels
Display aspect ratio             : 16:9
Frame rate mode                  : Variable
Frame rate                       : 25.000 fps
Standard                         : PAL
Color space                      : YUV
Chroma subsampling               : 4:2:0
Bit depth                        : 8 bits
Scan type                        : Progressive
Bits/(Pixel*Frame)               : 0.117
Stream size                      : 612 MiB (74%)
Audio #1
ID                               : 2
Format                           : AC-3
Format/Info                      : Audio Coding 3
Mode extension                   : CM (complete main)
Muxing mode                      : Header stripping
Codec ID                         : A_AC3
Duration                         : 1h 10mn
Bit rate mode                    : Constant
Bit rate                         : 192 Kbps
Channel(s)                       : 2 channels
Channel positions                : Front: L R
Sampling rate                    : 48.0 KHz
Bit depth                        : 16 bits
Compression mode                 : Lossy
Stream size                      : 96.7 MiB (12%)
Language                         : English
Audio #2
ID                               : 3
Format                           : AC-3
Format/Info                      : Audio Coding 3
Format profile                   : Dolby Digital
Mode extension                   : CM (complete main)
Muxing mode                      : Header stripping
Codec ID                         : A_AC3
Duration                         : 1h 10mn
Bit rate mode                    : Constant
Bit rate                         : 192 Kbps
Channel(s)                       : 2 channels
Channel positions                : Front: L R
Sampling rate                    : 48.0 KHz
Bit depth                        : 16 bits
Compression mode                 : Lossy
Stream size                      : 96.7 MiB (12%)
Language                         : Hindi
Subtitle Languages               : English         SAMPLE VIDEO
Barbie Diaries(2006)DVDRip[Hindi-Eng]AC3-DGrea8/Sample/1.jpg 137.363 KB
Barbie Diaries(2006)DVDRip[Hindi-Eng]AC3-DGrea8/_____padding_file_0_if you see this file, please update to BitComet 0.85 or above____ 124.781 KB
Barbie Diaries(2006)DVDRip[Hindi-Eng]AC3-DGrea8/Sample/10.jpg 173.94 KB
Gathering some info...

Register and log in Isohunt and see no captcha anymore!

4000 symbols left
Hash da0d614fea279df0a3dd7496d24123da1ef27177