imdb
rating

6.1
Hansel & Gretel: Witch Hunters

Hansel & Gretel: Witch Hunters (2013)

Action, Fantasy, Horror

Full description
quality   bd dvdrip x264 hd dvdr

Hansel.and.Gretel.Witch.Hunters.2013.720p.DVDRiP - DubsTeam.avi

Size 935.594 MB   0 seeders     Added 2013-05-05 15:39:42

Stream torrent
Starting‥ You need BitLord! Get it from BitLord.com
10
To download or stream you need BitLord. Visit them at BitLord.com
							
Video
ID : 0
Format : AVC
Format/Info : Advanced Video Codec
Format profile : Main@L5.1
Format settings, CABAC : Yes
Format settings, ReFrames : 1 frame
Codec ID : H264
Duration : 1h 27mn
Bit rate : 1 215 Kbps
Width : 1 280 pixels
Height : 720 pixels
Display aspect ratio : 16:9
Frame rate : 30.000 fps
Color space : YUV
Chroma subsampling : 4:2:0
Bit depth : 8 bits
Scan type : Progressive
Bits/(Pixel*Frame) : 0.044
Stream size : 764 MiB (86%)
Audio
ID : 1
Format : MPEG Audio
Format version : Version 1
Format profile : Layer 3
Codec ID : 55
Codec ID/Hint : MP3
Duration : 1h 27mn
Bit rate mode : Constant
Bit rate : 192 Kbps
Channel(s) : 2 channels
Sampling rate : 44.1 KHz
Compression mode : Lossy
Stream size : 121 MiB (14%)
Alignment : Split accross interleaves
Interleave, duration : 34 ms (1.03 video frame)
Interleave, preload duration : 109 ms
Writing library : LAMELAME_MAJOR_VERSI
						
Hansel.and.Gretel.Witch.Hunters.2013.720p.DVDRiP - DubsTeam.avi 935.594 MB
Gathering some info...

Register and log in Isohunt and see no captcha anymore!

4000 symbols left
Hash 10346337ecd86b7ee07a21d0848dda92d7f92c21

Related torrents for "Hansel.and.Gretel.Witch.Hunters.2013.720p.DVDRiP - DubsTeam.avi"

Torrent search:

dvdrip hd 2013