Discohits 90` Disc 7.mp4

Size 2.468 GB   0 seeders     Added 2013-05-05 18:16:38

Stream torrent
Starting‥ You need BitLord! Get it from BitLord.com
To download or stream you need BitLord. Visit them at BitLord.com
1. Down Low - We Do It Like That
2. Haddaway - What About Me
3. Mr. President - Give A Little Love
4. Culture Beat - Take Me Away
5. Pandora - Don't You Know
6. Captain Jack - Get Up!
7. The Shamen - Comin On
8. Masterboy - Mister Feeling
9. Imperio - Wings Of Love
10. Clock - Axel F
11. 2 Unlimited - Twilight Zone
12. 2 Brothers On The 4th Floor - Never Alone
13. Cappella - Tell Me The Way
14. Snap - Mary Had A Little Boy
15. Ace Of Base - The Sign
16. DJ Bobo - Everybody
17. Technotronic - Money Makes The World Do Round
18. Sqeezer - Scandy Randy
19. Adam feat. Amy - Zombie
20. Scooter - Rebel Yell
21. Maduar - Space
22. Army Of Lovers - I Am
23. Dr. Alban - Long Time Ago
24. Vengaboys - Uncle John From Jamaica
25. No Mercy - Where Do You Go
26. Music Instructor - Super Sonic
27. Bomfunk MC`s - Freestyler
28. SASH - Stay
29. Alexia - Number One
30. Reel 2 Real - Go On Move
31. C-Block - So Strung Out
32. Soultans - I Heard It Through The Grapevine
33. Motiv 8 - Rocking For Myself
34. Melodie MC - Dum Da Dum
35. B.G. The Prince Of Rap - The Power Of Rhythm
36. Basic Element - The Ride
37. Ab Logic - The Hitman
38. Odyssey - Move Your Body
39. Scatman John - Everybody Jam
40. Yaki Da - I Saw You Dancing
41. Aqua - Lollipop
42. Me & My - Baby Boy
43. Sin With Sebastian - Golden Boy
44. Ice MC - People
45. Shabba Ranks - Mr. Loverman
Video:
Format : MPEG-4 Visual
Format profile : Simple@L1
Format settings, BVOP : No
Format settings, QPel : No
Format settings, GMC : No warppoints
Format settings, Matrix:Default(H.263)
Bit rate : 1 799 Kbps
Width : 1 280 pixels
Height : 720 pixels
Display aspect ratio : 16:9
Frame rate mode : Constant
Frame rate : 29.970 fps
Color space : YUV
Chroma subsampling : 4:2:0
Bit depth : 8 bits
Scan type : Progressive
Compression mode : Lossy
Bits/(Pixel*Frame) : 0.065
Stream size : 2.10 GiB (93%)
Writing library : DigiArty AV Encoder Core
Audio:
Format : AAC
Format/Info : Advanced Audio Codec
Format profile : LC
Codec ID : 40
Duration : 2h 50mn
Bit rate mode : Variable
Bit rate : 128 Kbps
Channel(s) : 2 channels
Channel positions : Front: L R
Sampling rate : 48.0 KHz
Compression mode : Lossy
Stream size : 153 MiB (7%) 		
Discohits 90` Disc 7.mp4 2.468 GB
Gathering some info...

Register and log in Isohunt and see no captcha anymore!

4000 symbols left
Hash 2d434e5bbf311bf1f178cf63eae830f6fc7ccb13