Discohits 90` Disc 1.mp4

Size 2.47 GB   0 seeders     Added 2013-05-05 18:16:38

Stream torrent
Starting‥ You need BitLord! Get it from BitLord.com
To download or stream you need BitLord. Visit them at BitLord.com
1. Anticappella feat. MC Fixx It - Move Your body
2. Centory - Point Of No Return
3. MC Sar & The Real McCoy - Automatic Lover
4. B.G. The Prince Of Rap - The Colour Of My Dreams
5. Fun Factory - Take Your Chance
6. Magic Affair - In The Middle Of THe Night
7. Pharao - I Show You Secrets
8. Cappella - U And Me
9. 2 Unlimited - Real Things
10. Dr Alban - It's My Life
11. E-Type - Set The World On Fire
12. Snap - Rythm Is A Dancer
13. U96 - Love Religion
14. Imperio - Quo Vadis
15. La Bouche - Be My Lover
16. Masterboy - Feel The Heat Of The Night
17. Mr. President - Up & Away
18. Activate - Save Me
19. 2 Brothers On The 4th Floor - Dreams
20. Corona - Rhythm Of The Night
21. Captain Jack - Captain Jack
22. Captain Hollywood Project - Axel F
23. Technotronic - Move It to the Rhythm
24. Culture Beat - Crying In The Rain
25. C & C Music Factory - Here We Go
26. Haddaway - Life
27. DJ Bobo - Love Is All Around
28. Jam And Spoon feat Plavka - Right In The Night
29. Maxx - No More
30. Scooter - Weekend!
31. Sash - Adelante!
32. East 17 - It's Alright
33. Pet Shop Boys - Paninaro
34. Ice Mc feat. Alexia - Take Away The Colour
35. Loft - Love Is Magic
36. Twenty 4 Seven - We Are The World
37. Reel 2 Real - Can You Feel It
38. KLF - What Time Is Love
39. Blank & Jones - Catch
40. CB MIlton - I`ts A Loving Thing
41. Mo-Do - Super Gut
42. Scatman John - Scatman
43. E-Rotic - Megamix
44. Ace Of Base - Beautiful Life
45. Solid Base - I like it
Video:
Format : MPEG-4 Visual
Format profile : Simple@L1
Format settings, BVOP : No
Format settings, QPel : No
Format settings, GMC : No warppoints
Format settings, Matrix:Default(H.263)
Bit rate : 1 799 Kbps
Width : 1 280 pixels
Height : 720 pixels
Display aspect ratio : 16:9
Frame rate mode : Constant
Frame rate : 29.970 fps
Color space : YUV
Chroma subsampling : 4:2:0
Bit depth : 8 bits
Scan type : Progressive
Compression mode : Lossy
Bits/(Pixel*Frame) : 0.065
Stream size : 2.14 GiB (93%)
Writing library : DigiArty AV Encoder Core
Audio:
Format : AAC
Format/Info : Advanced Audio Codec
Format profile : LC
Codec ID : 40
Duration : 2h 50mn
Bit rate mode : Variable
Bit rate : 128 Kbps
Channel(s) : 2 channels
Channel positions : Front: L R
Sampling rate : 48.0 KHz
Compression mode : Lossy
Stream size : 153 MiB(7%)		
Discohits 90` Disc 1.mp4 2.47 GB
Gathering some info...

Register and log in Isohunt and see no captcha anymore!

4000 symbols left
Hash 2ed95f3dded2af0cccded6ebecd1a15fc7f56dc3