Discohits 90` Disc 2.mp4

Size 2.408 GB   0 seeders     Added 2013-05-05 18:16:39

Stream torrent
Starting‥ You need BitLord! Get it from 1BitLord.com
To download or stream you need BitLord. Visit them at BitLord.com
1. Ice MC - Think About The Way
2. Culture Beat - Mr. Vain
3. E-Type - This Is The Way
4. Haddaway - What Is Love
5. Centory - The Spirit
6. Cappella - Move It Up
7. Captain Jack - Little Boy
8. Dr Alban - Feel The Rhythm
9. Imperio - Atlantis
10. Captain Hollywood Project - Impossible
11. 2 Unlimited - Let The Beat Control Your Body
12. Maxx - Get A Way
13. B.G. The Prince Of Rap - Can't Love You
14. MC Sar & The Real McCoy - Run Away
15. Snap - The Power
16. Masterboy - I Got To Give It Up
17. Scooter - How Much Is The Fish
18. U96 - Das Boot
19. Magic Affair - Fly Away
20. C & C Music Factory - Gonna Make You Sweat
21. Technotronic - Hey Yoh, Here We Go
22. East 17 - Let It Rain
23. KLF - Last Train To Trancentral
24. 2 Brothers On The 4th Floor - Fly
25. DJ Bobo - Take Control
26. Fun Factory - Pain
27. General Base - Base Of Love
28. La Bouche - S.O.S.
29. Loft - Summer Summer Summer
30. Basic Element - The Promise Man
31. Mr. President - I' ll Follow The Sun
32. Aqua - Barbie Girl
33. Army Of Lovers - Israelism
34. Sash - Ecuador
35. Solid Base - You Never Know
36. Lil Suzy - When I Fall In Love
37. Corona - Try Me Out
38. Pandora - Trust Me
39. Mo-Do - Eins, Zwei, Polizei
40. Pharao - There Is A Star
41. La Strada - Zapisane W Niebie
42. Capital Sound - Higher Love
43. The Soundlovers - Run Away
44. Scatman John - Scatmans World
45. Zhi-Vago - Dreamer
Video:
Format : MPEG-4 Visual
Format profile : Simple@L1
Format settings, BVOP : No
Format settings, QPel : No
Format settings, GMC : No warppoints
Format settings, Matrix:Default(H.263)
Bit rate : 1 799 Kbps
Width : 1 280 pixels
Height : 720 pixels
Display aspect ratio : 16:9
Frame rate mode : Constant
Frame rate : 29.970 fps
Color space : YUV
Chroma subsampling : 4:2:0
Bit depth : 8 bits
Scan type : Progressive
Compression mode : Lossy
Bits/(Pixel*Frame) : 0.065
Stream size : 2.14 GiB (93%)
Writing library : DigiArty AV Encoder Core
Audio:
Format : AAC
Format/Info : Advanced Audio Codec
Format profile : LC
Codec ID : 40
Duration : 2h 46mn
Bit rate mode : Variable
Bit rate : 128 Kbps
Channel(s) : 2 channels
Channel positions : Front: L R
Sampling rate : 48.0 KHz
Compression mode : Lossy
Stream size : 153 MiB(7%)		
Discohits 90` Disc 2.mp4 2.408 GB
Gathering some info...

Register and log in Isohunt and see no captcha anymore!

4000 symbols left
Hash 0df704eb147f8879d847a94b9f0b840b3ee6a064