90s.Hit.Explosion.The.Very.Best.Of.Eurodance_Title1.mp4

Size 1.055 GB   0 seeders     Added 2013-05-05 18:33:25

Stream torrent
Starting‥ You need BitLord! Get it from BitLord.com
To download or stream you need BitLord. Visit them at BitLord.com
1. Snap! ΓÇô Rhythm Is A Dancer
2. Ace Of Base ΓÇô All That She Wants
3. Caught In The Act ΓÇô Love Is Everywhere
4. Yamboo feat. Dr. Alban ΓÇô Sing Hallelujah
5. Marcel Romanoff ΓÇô IΓÇÖd Love You To Want Me
6. DJ Bobo ΓÇô ThereΓÇÖs A Party
7. Ann Lee ΓÇô 2 Times
8. Technotronic ΓÇô Pump Up The Jam
9. Haddaway ΓÇô Life
10. Flying Steps ΓÇô In Da Arena
11. Culture Beat ΓÇô Mr. Vain
12. Whigfield ΓÇô Saturday Night
13. The Outhere Brothers ΓÇô Boom Boom Boom
14. 2 Unlimited ΓÇô No Limit
15. Captain Jack ΓÇô Captain Jack
16. Diva DJs vs. Nicki French ΓÇô Total Eclipse Of The Heart 2006
17. DJ Red 5 vs. MC Miker ΓÇô Da Beat Goes
18. Aqua ΓÇô Barbie Girl
19. TNN ΓÇô La Cucamarcha
20. Carrillio ΓÇô Sambe De Janeiro
Video:
Format : MPEG-4 Visual
Format settings, BVOP : No
Format settings, QPel : No
Format settings, GMC : No warppoints
Format settings, Matrix : Default (H.263)
Codec ID : 20
Duration : 1h 12mn
Bit rate mode : Constant
Bit rate : 1 799 Kbps
Width : 720 pixels
Height : 404 pixels
Display aspect ratio : 16:9
Frame rate mode : Constant
Frame rate : 29.970 fps
Color space : YUV
Chroma subsampling : 4:2:0
Bit depth : 8 bits
Scan type : Progressive
Compression mode : Lossy
Bits/(Pixel*Frame) : 0.206
Stream size : 936 MiB (93%)
Writing library : Lavc54.79.100
Audio:
Format : AAC
Format/Info : Advanced Audio Codec
Format profile : LC
Codec ID : 40
Duration : 1h 12mn
Bit rate mode : ConstantBit rate : 128 Kbps
Channel(s) : 2 channels
Channel positions : Front: L R
Sampling rate : 48.0 KHz
Compression mode : Lossy
Stream size : 66.6 MiB (7%)		
90s.Hit.Explosion.The.Very.Best.Of.Eurodance_Title1.mp4 1.055 GB
Gathering some info...

Register and log in Isohunt and see no captcha anymore!

4000 symbols left
Hash 57f8243700b325dcf944934c9f091487e64326bd