Retromix 6.mp4

Size 1.008 GB   1 seeders     Added 2013-05-05 18:34:50

Stream torrent
Starting‥ You need BitLord! Get it from BitLord.com
To download or stream you need BitLord. Visit them at BitLord.com
01. Dr. ALBAN - Away From Home
02. ACE OF BASE - The Sign
03. GARCIA - Bamboleo
04. SNOW - Informer
05. DJ BOBO - Its My Life
06. DJ BOBO - There Is A Party
07. DJ BOBO - Everybody
08. ININ KAMOZE - Here Comes The Hostepper
09. Mr. PRESIDENT - Coco Jamboo
10. SOUL II SOUL - Back To Life
11. KRIS KROSS - Jump
12. CYPRESS HILL - Insane In The Brain
13. E-ROTIC - Help Me Dr Dick
14. BLACK MACHINE - How Gee
15. K7 - Come Baby Come
16. SALTΓÇÖNΓÇÖPEPA - Let's Talk About Sex
17. MICHAEL JACKSON - Remember The Time
18. DIMPLES D - Sucker DJ
19. WILL SMITH - Miami
20. WILL SMITH - Men In Black
21. BACKSTREET BOYS - Everybody
22. BACKSTREET BOYS - We've Got It Goin' On
23. BACKSTREET BOYS - Get Down
24. SNAP! - Cult Of Snap
25. N-TRANCE - Stayin Alive
26. C+C MUSIC FACTORY - Here We Go
27. MICHAEL JACKSON - Jump
28. MODERN TALKING - -Brother Louie '98
29. WILL SMITH - Will 2K
30. MODERN TALKING - You're My Heart, You're My Soul
31. RIGHT SAID FRED - I?m To Sexy
32. REAL 2 REEL - I Like To Move It
33. AFRIKA BAMBAATAA - Just Get Up And Dance
34. HADDAWAY - What Is Love
35. CARTOUCHE - Feel The Groove
36. FREDIIE MERCURY - Living On My Own
37. TECHNOTRONIC - Get Up
38. 2 BROTHERS ON THE 4th FLOOR - Can't Help Myself
39. Dr. ALBAN - Sing Hallelujah
40. NO MERCY - Please DonΓÇÖt Go
41. MC SAR & THE REAL McCOY - Another Night
42. THE BUCKETHEHEADS - The Bomb
43. 2 UNLIMITED - Get Ready For This
44. AB LOGIC - The Hitman
45. SNAP! - Rhythm Is A Dancer
46. SHAMEN - Ebeneezer Goode
47. MAX A MILLION - Fat Boy
48. LIVIN JOE - Dreamer
49. NO MERCY - Where Do You Go
50. CORONA - The Rhythm Of The Night
51. AMBER - This Is Your Night
52. HADDAWAY - Life
53. TAG TEAM - Whoomp! (There It Is)
54. DOUBLE YOU - Run To Me
55. ACE OF BASE - ItΓÇÖs A Beautiful Life
56. AQUA - Barbie Girl
57. HADDAWAY - Rock My Heart
58. 2 UNLIMITED - Tribal Dance
59. WHIGFIELD - Another Day
60. GINA G - Ooh Aah Just A Little Bit
61. REDNEX - Cotton Eye Joe
62. PARADISIO - Bailando
63. CULTURE BEAT - Mr. Vain
64. CULTURE BEAT - Got To Get It
65. BELLINI - Samba De Janeiro
66. CAPELLA - Move It Up
67. ICE MC - Think About The Way
68. MAXX - Get Away
69. CAPELLA - Move On Baby
70. REAL McCOY - Automatic Lover
71. PLAYA HITS - The Summer Is Magic
72. CAPELLA - U Got 2 Let The Music
73. 2 BROTHERS ON THE 4th FLOOR - Dreams
74. LA BOUCHE - Be My Lover
75. 666 - Bomba
76. REAL McCOY - Run Away
77. 666 - Paradoxx
78. ICE MC - It's Rainy Day
79. VENGABOYS - We Like To Party
80. Mr. PRESIDENT - Up'n Away
81. LE CLICK - Call Me
82. SCATMAN JOHN - Scatman John
83. ANTI-FUNKY - Let's Go Dancing
84. ANTI-FUNKY - Everybody Jump
85. TECHNOTRONIC - Move It To The Rhythm
86. MAGIC AFFAIR - Omen 3
87. VENGABOYS - Kiss
88. VENGABOYS - Boom, Boom, Boom, Boom!
89. DJ BOBO - Love Is All Around
90. TWENTY 4 SEVEN - Is It Love 8
91. PHARAO - I Show Your Secrets
92. 2 UNLIMITED - Let the Beat Control Your Body
93. CULTURE BEAT - Anything
94. PHARAO - There Is A Star
and...Bonus Mix - In the name of love 80s
Video:
Format : MPEG-4 Visual
Format settings, BVOP : No
Format settings, QPel : No
Format settings, GMC : No warppoints
Format settings, Matrix : Default (H.263)
Codec ID : 20
Duration : 1h 9mn
Bit rate mode : Constant
Bit rate : 1 798 Kbps
Width : 640 pixels
Height : 360 pixels
Display aspect ratio : 16:9
Frame rate mode : Constant
Frame rate : 29.970 fps
Color space : YUV
Chroma subsampling : 4:2:0
Bit depth : 8 bits
Scan type : Progressive
Compression mode : Lossy
Bits/(Pixel*Frame) : 0.260
Stream size : 894 MiB (93%)
Writing library : Lavc54.79.100
Audio:
Format : AAC
Format/Info : Advanced Audio Codec
Format profile : LC
Codec ID : 40
Duration : 1h 9mn
Bit rate mode : Constant
Bit rate : 128 Kbps
Channel(s) : 2 channels
Channel positions : Front: L R
Sampling rate : 48.0 KHz
Compression mode : Lossy
Stream size : 63.6 MiB (7%)		
Retromix 6.mp4 1.008 GB
Gathering some info...

Register and log in Isohunt and see no captcha anymore!

4000 symbols left
Hash 9614b8202a0aab13aa1bacab9bec8a72beed5c68