Jose James & Royal Concertgebouw Orchestra - Queensnight Concert.zip

Size 178.216 MB   0 seeders     Added 2013-05-05 19:08:40

To download or stream you need BitLord. Visit them at BitLord.com
Rise of Guardians(2012) 1080p[Dual Audio][ENG(5.1)-HINDI(5.1)]~{PHDR}~
Tagline
When the evil spirit Pitch launches an assault on Earth, the Immortal Guardians team up to protect the innocence of children all around the world.
Cast
Chris Pine ... Jack Frost (voice)
Alec Baldwin ... North (voice)
Jude Law ... Pitch (voice)
Isla Fisher ... Tooth (voice)
Hugh Jackman ... Bunny (voice)
Dakota Goyo ... Jamie Bennett (voice)
Khamani Griffin ... Caleb (voice)
Kamil McFadden ... Claude (voice)
General
Complete name                            : Rise of Guardians(2012) 1080p[Dual Audio][ENG(5.1)-HINDI(5.1)]~{PHDR}~
Format                                   : Matroska
Format version                           : Version 2
File size                                : 3.33 GiB
Duration                                 : 1h 37mn
Overall bit rate                         : 4 910 Kbps
Movie name                               : Rise of Guardians(2012) 1080p[Dual Audio][ENG(5.1)-HINDI(5.1)]~{PHDR}~
Video
ID                                       : 1
Format                                   : AVC
Format/Info                              : Advanced Video Codec
Format profile                           : High@L4.0
Format settings, CABAC                   : Yes
Format settings, ReFrames                : 5 frames
Muxing mode                              : Header stripping
Codec ID                                 : V_MPEG4/ISO/AVC
Duration                                 : 1h 37mn
Bit rate                                 : 4 000 Kbps
Width                                    : 1 920 pixels
Height                                   : 1 080 pixels
Display aspect ratio                     : 16:9
Frame rate mode                          : Constant
Frame rate                               : 23.976 fps
Color space                              : YUV
Chroma subsampling                       : 4:2:0
Bit depth                                : 8 bits
Scan type                                : Progressive
Bits/(Pixel*Frame)                       : 0.080
Stream size                              : 2.66 GiB (80%)
Writing library                          : x264 core 129 r2245+729M 1a52e03
Default                                  : Yes
Forced                                   : No
Audio #1
ID                                       : 2
Format                                   : AC-3
Format/Info                              : Audio Coding 3
Mode extension                           : CM (complete main)
Format settings, Endianness              : Big
Muxing mode                              : Header stripping
Codec ID                                 : A_AC3
Duration                                 : 1h 37mn
Bit rate mode                            : Constant
Bit rate                                 : 448 Kbps
Channel(s)                               : 6 channels
Channel positions                        : Front: L C R, Side: L R, LFE
Sampling rate                            : 48.0 KHz
Bit depth                                : 16 bits
Compression mode                         : Lossy
Stream size                              : 311 MiB (9%)
Title                                    : Original DVD ~{PHDR}~
Language                                 : Hindi
Default                                  : Yes
Forced                                   : No
Audio #2
ID                                       : 3
Format                                   : AC-3
Format/Info                              : Audio Coding 3
Mode extension                           : CM (complete main)
Format settings, Endianness              : Big
Muxing mode                              : Header stripping
Codec ID                                 : A_AC3
Duration                                 : 1h 37mn
Bit rate mode                            : Constant
Bit rate                                 : 448 Kbps
Channel(s)                               : 6 channels
Channel positions                        : Front: L C R, Side: L R, LFE
Sampling rate                            : 48.0 KHz
Bit depth                                : 16 bits
Compression mode                         : Lossy
Stream size                              : 311 MiB (9%)
Language                                 : English
Default                                  : No
Forced                                   : No
Text #1
ID                                       : 4
Format                                   : PGS
Muxing mode                              : zlib
Codec ID                                 : S_HDMV/PGS
Codec ID/Info                            : The same subtitle format used on BDs/HD-DVDs
Title                                    : BLURAY
Language                                 : Hindi
Default                                  : Yes
Forced                                   : No
Text #2
ID                                       : 5
Format                                   : PGS
Muxing mode                              : zlib
Codec ID                                 : S_HDMV/PGS
Codec ID/Info                            : The same subtitle format used on BDs/HD-DVDs
Title                                    : BLURAY SDH
Language                                 : English
Default                                  : No
Forced                                   : No
Menu = YES(UNNAMED)      
NOTE :
1. SEEDING FROM HIGH SPEED SERVER, ENJOY MAX DOWNLOAD SPEED 
2. HINDI AUDIO FROM OWN DVD AND PERFECTLY SYNCED
3. HINDI AND ENGLISH BLURAY SUBS INCLUDED
4. DON'T FALL FOR LINE AUDIO OR CONVERTED 5.1, ENJOY THE PERFECTION...!!!
5. TAMIL SEPERATE AUDIO LINK INCLUDED IN TORRENT
6. FOR AUDIO'S STAY IN TOUCH WITH MY FACEBOOK PAGETHE FOOLS WHO NEED DVD PROOF, FOLLOW BELOW LINKLINKCLICK ON LIKE BUTTON TO CONNECT WITH MY PAGE ON FACEBOOK SO U CAN GET ALL THE LATEST STUFF, UPCOMING ETC ON IT
Jose James & Royal Concertgebouw Orchestra - Queensnight Concert.zip 178.216 MB
Gathering some info...

Register and log in Isohunt and see no captcha anymore!

4000 symbols left
Hash d22adbf11efcbea5e19238342019889d725fb4e9