imdb
rating

6.7
The Bone Collector

The Bone Collector (1999)

Crime, Drama, Mystery, Thriller

Full description
quality   dvdrip hd bd x264 fullhd h264 hdtv

The Bone Collector (1999) DVDRip XviD AC3 peaSoup

Size 1.307 GB   0 seeders     Added 2013-05-05 23:50:51

Stream torrent
Starting‥ You need BitLord! Get it from 1BitLord.com
To download or stream you need BitLord. Visit them at BitLord.com
List:
http://www.imdb.com/title/tt0145681/
List:
List:
Quadripeligic ex-cop Lincoln Rhyme was looking forward to his assisted suicide when he got the news: some sicko was abducting people in a taxi and leaving them to die in particularly sadistic ways. With time counting down between each abduction and possible death, Rhyme recruits rather-unwilling Amelia Donaghy, haunted by her cop father's suicide and thinking she's next, into working the crime scenes to track down the killer.
List:

List:
Format : AVI
Format/Info : Audio Video Interleave
Format profile : OpenDML
File size : 1.14 GiB
Duration : 1h 53mn
Overall bit rate : 1 438 Kbps
Movie name : The Bone Collector (1999) DVDRip XviD AC3 peaSoup
Writing application : Lavf53.21.0
Original source form/Name : BONE_COLLECTOR
Video
ID : 0
Format : MPEG-4 Visual
Format profile : Advanced Simple@L5
Format settings, BVOP : 2
Format settings, QPel : No
Format settings, GMC : No warppoints
Format settings, Matrix : Default (H.263)
Muxing mode : Packed bitstream
Codec ID : XVID
Codec ID/Hint : XviD
Duration : 1h 53mn
Bit rate : 976 Kbps
Width : 720 pixels
Height : 308 pixels
Display aspect ratio : 2.35:1
Frame rate : 25.000 fps
Color space : YUV
Chroma subsampling : 4:2:0
Bit depth : 8 bits
Scan type : Progressive
Compression mode : Lossy
Bits/(Pixel*Frame) : 0.176
Stream size : 790 MiB (68%)
Writing library : XviD 1.2.1 (UTC 2008-12-04)
Audio
ID : 1
Format : AC-3
Format/Info : Audio Coding 3
Mode extension : CM (complete main)
Format settings, Endianness : Big
Codec ID : 2000
Duration : 1h 53mn
Bit rate mode : Constant
Bit rate : 448 Kbps
Channel(s) : 6 channels
Channel positions : Front: L C R, Side: L R, LFE
Sampling rate : 48.0 KHz
Bit depth : 16 bits
Compression mode : Lossy
Stream size : 363 MiB (31%)
Alignment : Aligned on interleaves
Interleave, duration : 32 ms (0.80 video frame)
The Bone Collector (1999) DVDRip XviD AC3 peaSoup/The Bone Collector (1999) DVDRip XviD AC3 peaSoup.avi 1.22 GB
The Bone Collector (1999) DVDRip XviD AC3 peaSoup/The Bone Collector (1999) DVDRip XviD AC3 peaSoup.idx 1.035 MB
The Bone Collector (1999) DVDRip XviD AC3 peaSoup/The Bone Collector (1999) DVDRip XviD AC3 peaSoup.sub 85.844 MB
Gathering some info...

Register and log in Isohunt and see no captcha anymore!

4000 symbols left
Hash 79cf319bd042a6a069d9c9850db7b4072962e2a2

Related torrents for "The Bone Collector (1999) DVDRip XviD AC3 peaSoup"

Torrent search:

dvdrip 1999