imdb
rating

4.9
The Pest

The Pest (1997)

Action, Comedy

Full description
quality   dvdrip x264 h264 hd web-dl bd

The Pest 1997 DvdRip XVid bsweet

Size 2.069 GB   0 seeders     Added 2013-05-06 00:08:35

Stream torrent
Starting‥ You need BitLord! Get it from BitLord.com
10
To download or stream you need BitLord. Visit them at BitLord.com

Mentally challenged Raymond Rourke gets blamed and framed by several kids after they accidentally kill his younger brother Bryce. Six years later, Raymond escapes from the state mental hospital he's been locked up in so he can exact a harsh revenge on the folks who killed his brother and set him up.
Format                                   : MPEG-4
Format profile                           : Base Media / Version 2
Codec ID                                 : mp42
File size                                : 978 MiB
Duration                                 : 1h 22mn
Overall bit rate mode                    : Variable
Overall bit rate                         : 1 663 Kbps
Writing application                      : HandBrake 0.9.8 2012071700
Video
ID                                       : 1
Format                                   : AVC
Format/Info                              : Advanced Video Codec
Format profile                           : Main@L3.0
Format settings, CABAC                   : Yes
Format settings, ReFrames                : 4 frames
Codec ID                                 : avc1
Codec ID/Info                            : Advanced Video Coding
Duration                                 : 1h 22mn
Bit rate mode                            : Variable
Bit rate                                 : 1 500 Kbps
Width                                    : 640 pixels
Height                                   : 360 pixels
Display aspect ratio                     : 16:9
Frame rate mode                          : Constant
Frame rate                               : 24.000 fps
Color space                              : YUV
Chroma subsampling                       : 4:2:0
Bit depth                                : 8 bits
Scan type                                : Progressive
Bits/(Pixel*Frame)                       : 0.271
Stream size                              : 881 MiB (90%)
Writing library                          : x264 core 120
Audio
ID                                       : 2
Format                                   : AAC
Format/Info                              : Advanced Audio Codec
Format profile                           : LC
Codec ID                                 : 40
Duration                                 : 1h 22mn
Bit rate mode                            : Variable
Bit rate                                 : 160 Kbps
Maximum bit rate                         : 322 Kbps
Channel(s)                               : 2 channels
Channel positions                        : Front: L R
Sampling rate                            : 44.1 KHz
Compression mode                         : Lossy
Delay relative to video                  : 83ms
Stream size                              : 94.1 MiB (10%)
The Pest 1997 DvdRip XVid bsweet/Making of The Pest 1997 DvdRip XVid BSweet.mkv 128.605 MB
The Pest 1997 DvdRip XVid bsweet/Read Me!!!.txt 252 B
The Pest 1997 DvdRip XVid bsweet/The Pest 1997 DvdRip XVid BSweet.English.idx 245.278 KB
Gathering some info...

Register and log in Isohunt and see no captcha anymore!

4000 symbols left
Hash fc56746be5086e12d8b7f4e6a1ba17d990edc4a4

Related torrents for "The Pest 1997 DvdRip XVid bsweet"

Torrent search:

dvdrip 1997