imdb
rating

7.0
Remember Sunday

Remember Sunday (2013)

Drama, Romance, TV Movie

Full description
quality   hdtv web-rip x264 bd

Remember Sunday 2013 WEBRip XViD juggs

Size 739.424 MB   35 seeders     Added 2013-05-06 01:43:34

Stream torrent
Starting‥ You need BitLord! Get it from BitLord.com
To download or stream you need BitLord. Visit them at BitLord.com
 http://www.imdb.com/title/tt2770480/

Format : AVI
Format/Info : Audio Video Interleave
File size : 699 MiB
Duration : 1h 36mn
Overall bit rate : 1 010 Kbps
Writing library : VirtualDub build 32842/release

Video
ID : 0
Format : MPEG-4 Visual
Format profile : Advanced Simple@L5
Format settings, BVOP : 2
Format settings, QPel : No
Format settings, GMC : No warppoints
Format settings, Matrix : Default (H.263)
Muxing mode : Packed bitstream
Codec ID : XVID
Codec ID/Hint : XviD
Duration : 1h 36mn
Bit rate : 872 Kbps
Width : 640 pixels
Height : 352 pixels
Display aspect ratio : 16:9
Frame rate : 23.976 fps
Color space : YUV
Chroma subsampling : 4:2:0
Bit depth : 8 bits
Scan type : Progressive
Compression mode : Lossy
Bits/(Pixel*Frame) : 0.161
Stream size : 604 MiB (86%)
Writing library : XviD 1.2.0.dev47 (UTC 2006-11-01)

Audio
ID : 1
Format : MPEG Audio
Format version : Version 1
Format profile : Layer 3
Codec ID : 55
Codec ID/Hint : MP3
Duration : 1h 36mn
Bit rate mode : Constant
Bit rate : 128 Kbps
Channel(s) : 2 channels
Sampling rate : 44.1 KHz
Compression mode : Lossy
Stream size : 88.7 MiB (13%)
Alignment : Split accross interleaves
Interleave, duration : 42 ms (1.00 video frame)
Interleave, preload duration : 500 ms
Writing library : LAME3.99r
Encoding settings : -m s -V 4 -q 3 -lowpass 17 -b 128

Plot
A lonely waitress meets a handsome, quirky jewelry store clerk who had a brain aneurysm and thus has short-term memory loss.
 
image 
image 
image		
Remember Sunday 2013 WEBRip XViD juggs/Remember Sunday 2013 WEBRip XViD juggs.avi 733.247 MB
Remember Sunday 2013 WEBRip XViD juggs/Torrent Downloaded From ExtraTorrent.com.txt 339 B
Remember Sunday 2013 WEBRip XViD juggs/sample.avi 6.177 MB
Gathering some info...

Register and log in Isohunt and see no captcha anymore!

4000 symbols left
Hash 2330dba8d44a63c0cc03302c3608c44a654a0155

Related torrents for "Remember Sunday 2013 WEBRip XViD juggs"

Torrent search:

web-rip 2013