imdb
rating

6.1
Hansel & Gretel: Witch Hunters

Hansel & Gretel: Witch Hunters (2013)

Action, Fantasy, Horror

Full description
quality   bd dvdrip x264 hd dvdr

Hansel and Gretel Witch Hunters 2013 1080P 6CH AC3 $MURDER$

Size 1.347 GB   48 seeders     Added 2013-05-06 02:40:49

Stream torrent
Starting‥ You need BitLord! Get it from BitLord.com
10
To download or stream you need BitLord. Visit them at BitLord.com
							General
Hansel & Gretel: Witch Hunters (2013)

88 min - Action | Fantasy | Horror - 25 January 2013 (USA)

6.4 Your rating: -/10 Ratings: 6.4/10 from 26,571 users Metascore: 21/100 

Reviews: 130 user | 239 critic | 24 from Metacritic.com

In this spin on the fairy tale, 
Hansel & Gretel are now bounty hunters who track and kill witches all over the world. 
As the fabled Blood Moon approaches, 
the siblings encounter a new form of evil that might hold a secret to their past.

Director: Tommy Wirkola
Writer: Tommy Wirkola
Stars: Jeremy Renner, Gemma Arterton, Famke Janssen
================================================================================================================
Complete name : Hansel and Gretel Witch Hunters 2013 1080P 6CH AC3 $MURDER$.mkv
Format : Matroska
Format version : Version 1
File size : 1.22 GiB
Duration : 1h 27mn
Overall bit rate : 1 991 Kbps

Video
ID : 1
Format : AVC
Format/Info : Advanced Video Codec
Format profile : High@L3.0
Format settings, CABAC : No
Format settings, ReFrames : 1 frame
Codec ID : V_MPEG4/ISO/AVC
Duration : 1h 27mn
Bit rate : 1 800 Kbps
Width : 1 920 pixels
Height : 804 pixels
Display aspect ratio : 2.40:1
Frame rate : 25.000 fps
Color space : YUV
Chroma subsampling : 4:2:0
Bit depth : 8 bits
Scan type : Progressive
Bits/(Pixel*Frame) : 0.047
Stream size : 1.08 GiB (88%)
Writing library : x264 core 
Default : Yes
Forced : No

Audio
ID : 2
Format : AC-3
Format/Info : Audio Coding 3
Mode extension : CM (complete main)
Codec ID : A_AC3
Duration : 1h 27mn
Bit rate mode : Constant
Bit rate : 192 Kbps
Channel(s) : 6 channels
Channel positions : Front: L C R, Side: L R, LFE
Sampling rate : 48.0 KHz
Bit depth : 16 bits
Compression mode : Lossy
Stream size : 121 MiB (10%)
Default : Yes
Forced : No

srceens
Hansel and Gretel Witch Hunters 2013 1080P 6CH AC3 $MURDER$/Hansel and Gretel Witch Hunters 2013 1080P 6CH AC3 $MURDER$.mkv 1.314 GB
Hansel and Gretel Witch Hunters 2013 1080P 6CH AC3 $MURDER$/SAMPLE.ts 33.563 MB
Hansel and Gretel Witch Hunters 2013 1080P 6CH AC3 $MURDER$/screens.jpg 205.101 KB
Gathering some info...

Register and log in Isohunt and see no captcha anymore!

4000 symbols left
Hash b6e90021848bd494ad258a1dd05ec9e1e11c1ada

Related torrents for "Hansel and Gretel Witch Hunters 2013 1080P 6CH AC3 $MURDER$"

Torrent search:

fullhd 2013