imdb
rating

6.9
Warm Bodies

Warm Bodies (2013)

Comedy, Horror, Romance

Full description
quality   bd dvdrip x264 telesync

Warm Bodies 2013 _HDRip_Xvid.avi Verified

Size 1.331 GB   0 seeders     Added 2013-05-06 02:40:52

Stream torrent
Starting‥ You need BitLord! Get it from BitLord.com
10
To download or stream you need BitLord. Visit them at BitLord.com
Warm Bodies 2013 HD:
==================================
Info:
------- 
http://www.imdb.com/title/tt1588173/

Format                           : AVI
Format/Info                      : Audio Video Interleave
Duration                         : 1h 32mn
Overall bit rate                 : 1 921 Kbps
Writing library                  : VirtualDub build 35390/release

Video
ID                               : 0
Format                           : MPEG-4 Visual
Format profile                   : Advanced Simple@L5
Format settings, BVOP            : Yes
Format settings, QPel            : No
Format settings, GMC             : No warppoints
Format settings, Matrix          : Default (H.263)
Muxing mode                      : Packed bitstream
Codec ID                         : XVID
Codec ID/Hint                    : XviD
Duration                         : 1h 32mn
Bit rate                         : 1 784 Kbps
Width                            : 720 pixels
Height                           : 362 pixels
Display aspect ratio             : 1.989
Frame rate                       : 24.000 fps
Color space                      : YUV
Chroma subsampling               : 4:2:0
Bit depth                        : 8 bits
Scan type                        : Progressive
Bits/(Pixel*Frame)               : 0.285
Stream size                      : 1.15 GiB (93%)
Writing library                  : XviD 1.2.1 (UTC 2008-12-04)

Audio
ID                               : 1
Format                           : MPEG Audio
Format version                   : Version 1
Format profile                   : Layer 3
Mode                             : Joint stereo
Mode extension                   : MS Stereo
Codec ID                         : 55
Codec ID/Hint                    : MP3
Duration                         : 1h 32mn
Bit rate mode                    : Constant
Bit rate                         : 128 Kbps
Channel(s)                       : 2 channels
Sampling rate                    : 48.0 KHz
Stream size                      : 84.3 MiB (7%)
Alignment                        : Split accross interleaves
Interleave, duration             : 42 ms (1.00 video frame)
Interleave, preload duration     : 500 ms
Writing library                  : LAME3.98.2

==================================================================
Screen shots:
====================================================================
 
image 
image 
image 
image		

ENJOY!
Warm Bodies 2013 _HDRip_Xvid.avi 1.331 GB
Gathering some info...

Register and log in Isohunt and see no captcha anymore!

4000 symbols left
Hash 0861f1d20e8a3998fcacda3a2eea041225d04d62

Related torrents for "Warm Bodies 2013 _HDRip_Xvid.avi"

Torrent search:

2013