imdb
rating

7.2
True Lies

True Lies (1994)

Action, Thriller

Full description
quality   dvdrip x264 fullhd hd bd

True Lies (1994)-alE13

Size 4.366 GB   0 seeders     Added 2013-05-06 03:20:35

Stream torrent
Starting‥ You need BitLord! Get it from 1BitLord.com
To download or stream you need BitLord. Visit them at BitLord.com
							
produkcja: USA
gatunek: Komedia, Akcja
data premiery: 1994-07-15
czas trwania: 136 min
reżyseria: James Cameron
scenariusz: Simon Michaël, Didier Kaminka, Claude Zidi, James Cameron
zdjęcia: Russell Carpenter
muzyka: Brad Fiedel
czas: 02:21:58
opis filmu:
Harry Tasker is a secret agent for the United States Government. For years, he has kept his 
job from his wife, but is forced to reveal his identity and try to stop nuclear terrorists 
when he and his wife are kidnapped by the terrorists. 
Międzynarodowy agent do zadań specjalnych Harry Tasker to prawdziwy as wśród szpiegów: 
włada biegle sześcioma językami, ma nienaganne maniery, ale potrafi też unieszkodliwić 
każdego przeciwnika. Może pochwalić się doktoratem z fizyki jądrowej i umiejętnością 
pilotażu samolotu odrzutowego. Ze wszystkich niebezpiecznych misji wychodzi obronną 
ręką. Problemy zaczynają się wtedy, gdy w aferę szpiegowską zostaje wplątana jego rodzina.
obsada:
Arnold Schwarzenegger - Harry Tasker
Jamie Lee Curtis - Helen Tasker
Tom Arnold - Albert Gibson
Bill Paxton - Simon
Charlton Heston - Spencer Trilby
dane techniczne:
True Lies (1994)-alE13.mkv
Format : Matroska
Format version : Version 4 / Version 2
File size : 4.03 GiB
Duration : 2h 21mn
Overall bit rate : 4 068 Kbps
Movie name : True Lies (1994)-alE13_AT-TEAM
Encoded date : UTC 2013-05-05 19:41:10
Writing application : mkvmerge v6.1.0 ('Old Devil') built on Mar 2 2013 14:32:37
Writing library : libebml v1.3.0 + libmatroska v1.4.0
Video
ID : 1
Format : MPEG-4 Visual
Format profile : Simple@L1
Format settings, BVOP : No
Format settings, QPel : No
Format settings, GMC : No warppoints
Format settings, Matrix : Default (H.263)
Codec ID : V_MS/VFW/FOURCC / DIVX
Codec ID/Info : Project Mayo
Codec ID/Hint : DivX 4
Duration : 2h 21mn
Bit rate : 3 411 Kbps
Width : 1 280 pixels
Height : 548 pixels
Display aspect ratio : 2.35:1
Frame rate mode : Constant
Frame rate : 23.976 fps
Color space : YUV
Chroma subsampling : 4:2:0
Bit depth : 8 bits
Scan type : Progressive
Compression mode : Lossy
Bits/(Pixel*Frame) : 0.203
Stream size : 3.38 GiB (84%)
Title : True Lies (1994)_Rip-alE13
Writing library : DigiArty AV Encoder Core
Audio
ID : 2
Format : AC-3
Format/Info : Audio Coding 3
Mode extension : CM (complete main)
Format settings, Endianness : Big
Codec ID : A_AC3
Duration : 2h 21mn
Bit rate mode : Constant
Bit rate : 576 Kbps
Channel(s) : 6 channels
Channel positions : Front: L C R, Side: L R, LFE
Sampling rate : 48.0 KHz
Bit depth : 16 bits
Compression mode : Lossy
Delay relative to video : 24ms
Stream size : 585 MiB (14%)
Title : True Lies (1994)-alE13_AC3
Language : English
Text #1
ID : 3
Format : UTF-8
Codec ID : S_TEXT/UTF8
Codec ID/Info : UTF-8 Plain Text
Title : True Lies (1994)-alE13_eng
Language : English
Text #2
ID : 4
Format : VobSub
Muxing mode : zlib
Codec ID : S_VOBSUB
Codec ID/Info : The same subtitle format used on DVDs
Title : True Lies (1994)-alE13_pl
Language : Polish
						
True Lies (1994)-alE13/sub/True Lies (1994)-alE13_pl.sub 6.713 MB
True Lies (1994)-alE13/sub/True Lies (1994)-alE13_pl.srt 93.205 KB
True Lies (1994)-alE13/sub/True Lies (1994)-alE13_pl.idx 58.35 KB
Gathering some info...

Register and log in Isohunt and see no captcha anymore!

4000 symbols left
Hash 68d15148afece51ccd76e65264e157b21e55380f

Related torrents for "True Lies (1994)-alE13"

Torrent search:

1994