3Oh!3 - Back To Life [Music Video] 720p [Sbyky].mp4 Verified

Size 62 MB   0 seeders     Added 2013-05-06 06:52:35

Stream torrent
Starting‥ You need BitLord! Get it from 1BitLord.com
To download or stream you need BitLord. Visit them at BitLord.com
General
Complete name : 3Oh!3 - Back To Life [Music Video] 720p [Sbyky].mp4
Format : MPEG-4
Format profile : Base Media / Version 2
Codec ID : mp42
File size : 59.1 MiB
Duration : 4mn 53s
Overall bit rate mode : Variable
Overall bit rate : 1 688 Kbps
Encoded date : UTC 2013-03-04 18:30:07
Tagged date : UTC 2013-03-04 18:30:07
Video
ID : 1
Format : AVC
Format/Info : Advanced Video Codec
Format profile : [email protected]
/*  */

Format settings, CABAC : Yes
Format settings, ReFrames : 1 frame
Codec ID : avc1
Codec ID/Info : Advanced Video Coding
Duration : 4mn 53s
Bit rate : 1 494 Kbps
Maximum bit rate : 3 292 Kbps
Width : 1 280 pixels
Height : 720 pixels
Display aspect ratio : 16:9
Frame rate mode : Constant
Frame rate : 23.976 fps
Color space : YUV
Chroma subsampling : 4:2:0
Bit depth : 8 bits
Scan type : Progressive
Bits/(Pixel*Frame) : 0.068
Stream size : 52.3 MiB (88%)
Tagged date : UTC 2013-03-04 18:30:10
Audio
ID : 2
Format : AAC
Format/Info : Advanced Audio Codec
Format profile : LC
Codec ID : 40
Duration : 4mn 53s
Bit rate mode : Variable
Bit rate : 192 Kbps
Maximum bit rate : 203 Kbps
Channel(s) : 2 channels
Channel positions : Front: L R
Sampling rate : 44.1 KHz
Compression mode : Lossy
Stream size : 6.72 MiB (11%)
Title : IsoMedia File Produced by Google, 5-11-2011
Encoded date : UTC 2013-03-04 18:30:09
Tagged date : UTC 2013-03-04 18:30:10
Shared By Sbyky
3Oh!3 - Back To Life [Music Video] 720p [Sbyky].mp4 62 MB
Gathering some info...

Register and log in Isohunt and see no captcha anymore!

4000 symbols left
Hash 487b1e7acc12662929cc2e32df791dd1dfaf9d68