Science Friction (2012)-wk3d.mp4 Verified

Size 914.204 MB   0 seeders     Added 2013-05-06 14:07:37

Stream torrent
Starting‥ You need BitLord! Get it from 1BitLord.com
To download or stream you need BitLord. Visit them at BitLord.com
Drama | Horror | Sci-Fi
When a dope run into Mexico goes terribly wrong due to a faulty GPS and an unseen entity, Jack (Spencer Heney), a quiet college student and a rowdy group of party girls-the Vamps- find themselves lost on the fabled road Walpurgisnacht. Fear emerges when their '67 convertible and their 300k delivery mysteriously go missing. They seek shelter and safety descending deeper into terror as they face a dangerous local named Billy (L.Paschal Tenet) who seems to be the key to the cursed Walpurgisnacht Road and the secret to survive. Desperation mounts as they are chased into the belly of a deep dark mine and even deeper into their own consciousness. The frantic group search for redemption as they dodge the inevitable.
Format                                   : MPEG-4
Format profile                           : Base Media / Version 2
Codec ID                                 : mp42
File size                                : 872 MiB
Duration                                 : 1h 29mn
Overall bit rate mode                    : Variable
Overall bit rate                         : 1 364 Kbps
Writing application                      : HandBrake 0.9.8 2012071700
Video
ID                                       : 1
Format                                   : AVC
Format/Info                              : Advanced Video Codec
Format profile                           : Main@L3.0
Format settings, CABAC                   : Yes
Format settings, ReFrames                : 4 frames
Codec ID                                 : avc1
Codec ID/Info                            : Advanced Video Coding
Duration                                 : 1h 29mn
Bit rate mode                            : Variable
Bit rate                                 : 1 200 Kbps
Width                                    : 640 pixels
Height                                   : 360 pixels
Display aspect ratio                     : 16:9
Frame rate mode                          : Constant
Frame rate                               : 24.000 fps
Color space                              : YUV
Chroma subsampling                       : 4:2:0
Bit depth                                : 8 bits
Scan type                                : Progressive
Bits/(Pixel*Frame)                       : 0.217
Stream size                              : 767 MiB (88%)
Writing library                          : x264 core 120
Audio
ID                                       : 2
Format                                   : AAC
Format/Info                              : Advanced Audio Codec
Format profile                           : LC
Codec ID                                 : 40
Duration                                 : 1h 29mn
Bit rate mode                            : Variable
Bit rate                                 : 160 Kbps
Maximum bit rate                         : 323 Kbps
Channel(s)                               : 2 channels
Channel positions                        : Front: L R
Sampling rate                            : 44.1 KHz
Compression mode                         : Lossy
Delay relative to video                  : 83ms
Stream size                              : 102 MiB (12%)
Science Friction (2012)-wk3d.mp4 914.204 MB
Gathering some info...

Register and log in Isohunt and see no captcha anymore!

4000 symbols left
Hash d4481f5cd254e572e81a48f08db89420553c3986