imdb
rating

5.3
The Line

The Line (2008)

Action, Crime, Drama, Thriller

Full description

Florida Georgia Line - Get Your Shine On [Music Video] 720p [Sbyky].mp4

Size 75.073 MB   6 seeders     Added 2013-05-06 14:59:35

Stream torrent
Starting‥ You need BitLord! Get it from 1BitLord.com
To download or stream you need BitLord. Visit them at BitLord.com
							
General
Complete name : Florida Georgia Line - Get Your Shine On [Music Video] 720p [Sbyky].mp4
Format : MPEG-4
Format profile : Base Media / Version 2
Codec ID : mp42
File size : 71.6 MiB
Duration : 4mn 7s
Overall bit rate mode : Variable
Overall bit rate : 2 427 Kbps
Encoded date : UTC 2013-04-08 12:44:16
Tagged date : UTC 2013-04-08 12:44:16
Video
ID : 1
Format : AVC
Format/Info : Advanced Video Codec
Format profile : High@L3.1
Format settings, CABAC : Yes
Format settings, ReFrames : 1 frame
Codec ID : avc1
Codec ID/Info : Advanced Video Coding
Duration : 4mn 7s
Bit rate : 2 232 Kbps
Maximum bit rate : 5 851 Kbps
Width : 1 280 pixels
Height : 720 pixels
Display aspect ratio : 16:9
Frame rate mode : Constant
Frame rate : 23.976 fps
Color space : YUV
Chroma subsampling : 4:2:0
Bit depth : 8 bits
Scan type : Progressive
Bits/(Pixel*Frame) : 0.101
Stream size : 65.9 MiB (92%)
Tagged date : UTC 2013-04-08 12:44:22
Audio
ID : 2
Format : AAC
Format/Info : Advanced Audio Codec
Format profile : LC
Codec ID : 40
Duration : 4mn 7s
Bit rate mode : Variable
Bit rate : 192 Kbps
Maximum bit rate : 201 Kbps
Channel(s) : 2 channels
Channel positions : Front: L R
Sampling rate : 44.1 KHz
Compression mode : Lossy
Stream size : 5.66 MiB (8%)
Title : IsoMedia File Produced by Google, 5-11-2011
Encoded date : UTC 2013-04-08 12:44:20
Tagged date : UTC 2013-04-08 12:44:22
Shared By Sbyky
Florida Georgia Line - Get Your Shine On [Music Video] 720p [Sbyky].mp4 75.073 MB
Gathering some info...

Register and log in Isohunt and see no captcha anymore!

4000 symbols left
Hash e5da062f67add1cb67b43a7e003fa8078c495b60

Related torrents for "Florida Georgia Line - Get Your Shine On [Music Video] 720p [Sbyky].mp4"

Torrent search:

hd