imdb
rating

7.0
Trance

Trance (2013)

Crime, Drama, Mystery, Thriller

Full description

Trance (2013)CAM X264 AAC $MURDER$

Size 246.402 MB   0 seeders     Added 2013-05-06 23:41:49

Stream torrent
Starting‥ You need BitLord! Get it from BitLord.com
To download or stream you need BitLord. Visit them at BitLord.com
							Trance (2013)
 101 min - Crime | Drama | Mystery - 27 March 2013 (UK)
7.3 Your rating: -/10 Ratings: 7.3/10 from 7,794 users Metascore: 60/100 
Reviews: 73 user | 223 critic | 36 from Metacritic.com
An art auctioneer who has become mixed up with a group of criminals partners with a hypnotherapist in order to recover a lost painting.

Director: Danny Boyle
Writers: Joe Ahearne, John Hodge
Stars: James McAvoy, Vincent Cassel, Rosario DawsonGeneral
Complete name : Trance (2013)CAM X264 AAC $MURDER$
Format : MPEG-4
Codec ID : M4V 
File size : 234 MiB
Duration : 1h 35mn
Overall bit rate mode : Variable
Overall bit rate : 342 Kbps
Movie name : na
Album : na
Performer : na
Recorded date : na
Comment : na

Video
ID : 1
Format : AVC
Format/Info : Advanced Video Codec
Format profile : High@L3.0
Format settings, CABAC : Yes
Format settings, ReFrames : 2 frames
Codec ID : avc1
Codec ID/Info : Advanced Video Coding
Duration : 1h 35mn
Bit rate mode : Variable
Bit rate : 292 Kbps
Maximum bit rate : 1 315 Kbps
Width : 896 pixels
Height : 318 pixels
Display aspect ratio : 2.818
Frame rate mode : Constant
Frame rate : 25.000 fps
Color space : YUV
Chroma subsampling : 4:2:0
Bit depth : 8 bits
Scan type : Progressive
Bits/(Pixel*Frame) : 0.041
Stream size : 200 MiB (85%)
Writing library : x264 core 
Language : English

Audio
ID : 2
Format : AAC
Format/Info : Advanced Audio Codec
Format profile : HE-AAC / LC
Codec ID : 40
Duration : 1h 35mn
Bit rate mode : Variable
Bit rate : 48.0 Kbps
Maximum bit rate : 52.6 Kbps
Channel(s) : 2 channels
Channel positions : Front: L R
Sampling rate : 48.0 KHz / 24.0 KHz
Compression mode : Lossy
Stream size : 32.8 MiB (14%)
Language : English

Trance (2013)CAM X264 AAC $MURDER$/Trance (2013)CAM X264 AAC $MURDER$.MP4 245.069 MB
Trance (2013)CAM X264 AAC $MURDER$/trance-poster06.jpg 470.96 KB
Trance (2013)CAM X264 AAC $MURDER$/vlcsnap-2013-05-06-17h29m49s200.png 343.794 KB
Gathering some info...

Register and log in Isohunt and see no captcha anymore!

4000 symbols left
Hash 4cac52963c4ceacc32d7f618e087e5dca28d1b98

Related torrents for "Trance (2013)CAM X264 AAC $MURDER$"

Torrent search:

cam x264 2013