imdb
rating

8.1
There Will Be Blood

There Will Be Blood (2007)

Drama

Full description
quality   dvdrip dvdr screener hd bd x264

There Will Be Blood [2007] 720p BRRRip H264 AC3 - CODY

Size 2.52 GB   0 seeders     Added 2013-05-07 00:32:52

Stream torrent
Starting‥ You need BitLord! Get it from BitLord.com
To download or stream you need BitLord. Visit them at BitLord.com
General
Complete name                            : There Will Be Blood [2007] 720p BRRRip H264 AC3 - CODY.mp4
Format                                   : MPEG-4
Format profile                           : Base Media
Codec ID                                 : isom
File size                                : 2.35 GiB
Duration                                 : 2h 38mn
Overall bit rate mode                    : Variable
Overall bit rate                         : 2 120 Kbps
Encoded date                             : UTC 2013-02-17 00:09:09

Video
ID                                       : 1
Format                                   : AVC
Format/Info                              : Advanced Video Codec
Format profile                           : High@L4.1
Format settings, CABAC                   : Yes
Format settings, ReFrames                : 5 frames
Codec ID                                 : avc1
Codec ID/Info                            : Advanced Video Coding
Duration                                 : 2h 38mn
Bit rate mode                            : Variable
Bit rate                                 : 1 670 Kbps
Maximum bit rate                         : 20.0 Mbps
Width                                    : 1 280 pixels
Height                                   : 544 pixels
Display aspect ratio                     : 2.35:1
Frame rate mode                          : Constant
Frame rate                               : 23.976 fps
Color space                              : YUV
Chroma subsampling                       : 4:2:0
Bit depth                                : 8 bits
Scan type                                : Progressive
Bits/(Pixel*Frame)                       : 0.100
Stream size                              : 1.85 GiB (79%)
Writing library                          : x264 core 125 r2208 d9d2288
Encoding settings                        : rc=2pass
Color primaries                          : Generic film

Audio
ID                                       : 2
Format                                   : AC-3
Format/Info                              : Audio Coding 3
Mode extension                           : CM (complete main)
Format settings, Endianness              : Big
Codec ID                                 : ac-3
Duration                                 : 2h 38mn
Bit rate mode                            : Constant
Bit rate                                 : 448 Kbps
Channel(s)                               : 6 channels
Channel positions                        : Front: L C R, Side: L R, LFE
Sampling rate                            : 48.0 KHz
Bit depth                                : 16 bits
Compression mode                         : Lossy
Delay relative to video                  : 125ms
Stream size                              : 508 MiB (21%)

Audio language                           : English

IMDB link:                                 http://www.imdb.com/title/tt0469494/

Subtitles included                       : Romanian

Please seed at least 1,5:1 . This way this torrent has a chance to survive !

Thanks . Enjoy !!	
				
There Will Be Blood [2007] 720p BRRRip H264 AC3 - CODY/Cover.jpg 185.264 KB
There Will Be Blood [2007] 720p BRRRip H264 AC3 - CODY/Info_by_Cody.txt 7.872 KB
There Will Be Blood [2007] 720p BRRRip H264 AC3 - CODY/There Will Be Blood [2007] 720p BRRRip H264 AC3 - CODY.mp4 2.519 GB
Gathering some info...

Register and log in Isohunt and see no captcha anymore!

4000 symbols left
Hash 36743149cf4cadc2c1b7eb65e1d9f81dcd72f398

Related torrents for "There Will Be Blood [2007] 720p BRRRip H264 AC3 - CODY"

Torrent search:

h264 2007 hd