Dutta Vs Dutta 2012 DVDRip Bengali Movie [EngSub].mkv

Size 736.089 MB   0 seeders     Added 2013-05-07 03:05:34

Stream torrent
Starting‥ You need BitLord! Get it from 1BitLord.com
To download or stream you need BitLord. Visit them at BitLord.com
The Secret of Moonacre - Moonacre - I Segreti Dell'Ultima Luna (2008) [XviD - Italian English Ac3 5.1 - Sub Ita Eng] MIRCrew [TNT Village]
*********************************************
Moonacre - I segreti dell'ultima luna
Titolo originale 	The Secret of Moonacre
Lingua originale 	inglese
Paese 	Regno Unito/Francia/Ungheria
Anno 	2008
Durata 	103 min
Moonacre - I segreti dell'ultima luna è un film del 2008 diretto da Gabor Csupo, adattamento cinematografico del romanzo fantasy della scrittrice gallese Elizabeth Goudge Moonacre - I
segreti dell'ultima luna (The Secret of Moonacre).
Genere 	avventura, fantastico
Regia 	Gábor Csupó
Soggetto 	Elizabeth Goudge
Sceneggiatura 	Graham Alborough, Lucy Shuttleworth
Distribuzione (Italia) 	Moviemax
Fotografia 	David Eggby
Montaggio 	Julian Rodd
Musiche 	Christian Henson
Scenografia 	Sophie Becher
* Dakota Blue Richards: Maria Merryweather
* Ioan Gruffudd: Sir Benjamin
* Tim Curry: Coeur De Noir
* Natascha McElhone: Loveday
* Juliet Stevenson: Miss Heliotrope
* Augustus Prew: Robin
* Andy Linden: Marmaduke Scarlet
* Michael Webber: Digweed
* George Mendel: Priest.
1842. In seguito alla morte del padre e della madre la tredicenne Maria Merryweather va a vivere assieme alla sua istitutrice, Miss Heliotrope, da suo zio, Sir Benjamin Merryweather(suo
cugino nel libro). Purtroppo Sir Benjamin si rivela ottuso, introverso e riservato: questo intralcia subito il rapporto con Maria, adolescente impulsiva, coraggiosa, testarda e ribelle.
Tutto ciò si complica ancora di più quando lo zio le sequestra un libro, unica eredità lasciatale dal padre: "Le antiche cronache della valle di Moonacre". Maria, intenzionata a
riprenderlo, riesce a recuperarlo con l'aiuto del cuoco, Marmaduke Scarlett.Storyline:
When 13 year old Maria Merryweather's father dies, leaving her orphaned and homeless, she is forced to leave her luxurious London life to go and live with Sir Benjamin, an eccentric uncle
she didn't know she had, at the mysterious Moonacre Manor. Soon Maria finds herself in a crumbling moonlit world torn apart by the hatred of an ancient feud with the dark and sinister De
Noir family. Maria discovers that she is the last Moon Princess and, guided by an unlikely mix of allies, she must overcome her family's pride in order to unearth the secrets of the past
before the 5000th moon rises and Moonacre disappears into the sea forever.Hidden textGeneral
Complete name                    : Moonacre, I Segreti Dell'ultima Luna - The Secret Of Moonacre (2008)\Moonacre, I Segreti Dell'ultima Luna - The Secret Of Moonacre (2008).avi
Format                           : AVI
Format/Info                      : Audio Video Interleave
File size                        : 1.66 GiB
Duration                         : 1h 39mn
Overall bit rate                 : 2 403 Kbps
Writing application              : VirtualDubMod 1.5.10.2 (build 2540/release)
Writing library                  : VirtualDubMod build 2540/release
Video
ID                               : 0
Format                           : MPEG-4 Visual
Format profile                   : Simple@L3
Format settings, BVOP            : Yes
Format settings, QPel            : No
Format settings, GMC             : No warppoints
Format settings, Matrix          : Default (H.263)
Codec ID                         : XVID
Codec ID/Hint                    : XviD
Duration                         : 1h 39mn
Bit rate                         : 1 500 Kbps
Width                            : 720 pixels
Height                           : 304 pixels
Display aspect ratio             : 2.35:1
Frame rate                       : 25.000 fps
Color space                      : YUV
Chroma subsampling               : 4:2:0
Bit depth                        : 8 bits
Scan type                        : Progressive
Bits/(Pixel*Frame)               : 0.274
Stream size                      : 1.04 GiB (62%)
Audio #1
ID                               : 1
Format                           : AC-3
Format/Info                      : Audio Coding 3
Codec ID                         : 2000
Duration                         : 1h 39mn
Bit rate mode                    : Constant
Bit rate                         : 448 Kbps
Channel(s)                       : 6 channels
Sampling rate                    : 48.0 KHz
Stream size                      : 312 MiB (18%)
Alignment                        : Aligned on interleaves
Interleave, duration             : 41 ms (1.02 video frame)
Interleave, preload duration     : 500 ms
Audio #2
ID                               : 2
Format                           : AC-3
Format/Info                      : Audio Coding 3
Mode extension                   : CM (complete main)
Codec ID                         : 2000
Duration                         : 1h 39mn
Bit rate mode                    : Constant
Bit rate                         : 448 Kbps
Channel(s)                       : 6 channels
Channel positions                : Front: L C R, Side: L R, LFE
Sampling rate                    : 48.0 KHz
Bit depth                        : 16 bits
Stream size                      : 317 MiB (19%)
Alignment                        : Split accross interleaves
Interleave, duration             : 40 ms (1.00 video frame)
Interleave, preload duration     : 500 ms
Dutta Vs Dutta 2012 DVDRip Bengali Movie [EngSub].mkv 736.089 MB
Gathering some info...

Register and log in Isohunt and see no captcha anymore!

4000 symbols left
Hash 4aeb6af2006853785bfb3a335fa3e5e38bf4b5b5

Related torrents for "Dutta Vs Dutta 2012 DVDRip Bengali Movie [EngSub].mkv"

Torrent search:

dvdrip 2012