Rayne - Rayne (1979 us, folk rock with southern spirit - flac)

Size 178.284 MB   0 seeders     Added 2013-05-07 04:23:35

To download or stream you need BitLord. Visit them at BitLord.com
Charlie's Angels-1(2000)--->Rating:-5.5/10Charlie's Angels-2 Full Throttle(2003)--->Rating:-4.7/10
----Charlie's Angels-1(2000)----
The captivating crime-fighting trio who are the masters of disguise, espionage and martial arts. When a devious mastermind embroils them in a plot to destroy individual privacy the Angels, aided by their loyal sidekick Bosley, set out to bring down the bad guys. But when a terrible secret is revealed it makes the Angels targets for assassination.
----Charlie's Angels-2 Full Throttle(2003)----
The Angels--Natalie, Dylan, and Alex are back again but this time they're preparing for a strike without even warning as they go undercover to retrieve two missing silver bands. These are no ordinary rings. They contain valuable encrypted information that reveal the new identities of every person in the Federal Witness Protection Program. When witnesses start turning up dead, only the Angels, using their expertise as masters of disguise, espionage and martial arts can stop the perpetrator, a mysterious "fallen" Angel. Aided by their trusty colleague, Jimmy Bosley, the Angels' adventure begins at a remote Mongolian outpost and ends only after Dylan is forced to face a dark secret from her past--a secret that puts the lives of her two best friends in danger.
----Charlie's Angels-1(2000)----
Cameron Diaz	 ...	Natalie Cook
Drew Barrymore	 ...	Dylan Sanders
Lucy Liu	 ...	Alex Munday
Bill Murray	 ...	John Bosley
Sam Rockwell	 ...	Eric Knox
Kelly Lynch	 ...	Vivian Wood
Tim Curry	 ...	Roger Corwin
Crispin Glover	 ...	Thin Man
Matt LeBlanc	 ...	Jason Gibbons
LL Cool J	 ...	Mr. Jones
Tom Green	 ...	Chad
Luke Wilson	 ...	Pete Komisky
Sean Whalen	 ...	Pasqual
Tim Dunaway	 ...	Flight Attendant
Alex Trebek	 ...	Himself
----Charlie's Angels-2 Full Throttle(2003)

Cameron Diaz	 ...	Natalie Cook
Drew Barrymore	 ...	Dylan Sanders
Lucy Liu	 ...	Alex Munday
Bernie Mac	 ...	Jimmy Bosley
Crispin Glover	 ...	Thin Man
Justin Theroux	 ...	Seamus O'Grady
Robert Patrick	 ...	Ray Carter
Demi Moore	 ...	Madison Lee
Rodrigo Santoro	 ...	Randy Emmers
Shia LaBeouf	 ...	Max
Matt LeBlanc	 ...	Jason
Luke Wilson	 ...	Pete
John Cleese	 ...	Mr. Munday
Ja'net DuBois	 ...	Momma Bosley
Cheung-Yan Yuen	 ...	Deranged Mongol
----Charlie's Angels-1(2000)----
Video
ID                               : 1
Format                           : AVC
Format/Info                      : Advanced Video Codec
Format profile                   : Main@L4.0
Format settings, CABAC           : Yes
Format settings, ReFrames        : 4 frames
Muxing mode                      : Header stripping
Codec ID                         : V_MPEG4/ISO/AVC
Duration                         : 1h 34mn
Bit rate                         : 2 500 Kbps
Width                            : 1 920 pixels
Height                           : 800 pixels
Display aspect ratio             : 2.40:1
Frame rate mode                  : Variable
Frame rate                       : 25.000 fps
Color space                      : YUV
Chroma subsampling               : 4:2:0
Bit depth                        : 8 bits
Scan type                        : Progressive
Bits/(Pixel*Frame)               : 0.065
Stream size                      : 1.63 GiB (79%))
Audio #1
ID                               : 2
Format                           : AC-3
Format/Info                      : Audio Coding 3
Mode extension                   : CM (complete main)
Muxing mode                      : Header stripping
Codec ID                         : A_AC3
Duration                         : 1h 34mn
Bit rate mode                    : Constant
Bit rate                         : 384 Kbps
Channel(s)                       : 6 channels
Channel positions                : Front: L C R, Side: L R, LFE
Sampling rate                    : 48.0 KHz
Bit depth                        : 16 bits
Compression mode                 : Lossy
Stream size                      : 259 MiB (12%)
Language                         : English
Audio #2
ID                               : 3
Format                           : MPEG Audio
Format version                   : Version 1
Format profile                   : Layer 2
Muxing mode                      : Header stripping
Codec ID                         : A_MPEG/L2
Codec ID/Hint                    : MP2
Duration                         : 1h 34mn
Bit rate mode                    : Constant
Bit rate                         : 224 Kbps
Channel(s)                       : 2 channels
Sampling rate                    : 48.0 KHz
Compression mode                 : Lossy
Delay relative to video          : 30s 0ms
Stream size                      : 151 MiB (7%)
Language                         : Hindi
Subtitle Languages               : English
Genres: Action | Adventure | Comedy | Crime | Thriller
----Charlie's Angels-2 Full Throttle(2003)

Video
ID                               : 1
Format                           : AVC
Format/Info                      : Advanced Video Codec
Format profile                   : Main@L4.0
Format settings, CABAC           : Yes
Format settings, ReFrames        : 4 frames
Muxing mode                      : Header stripping
Codec ID                         : V_MPEG4/ISO/AVC
Duration                         : 1h 43mn
Bit rate                         : 2 448 Kbps
Width                            : 1 920 pixels
Height                           : 800 pixels
Display aspect ratio             : 2.40:1
Frame rate mode                  : Variable
Frame rate                       : 25.000 fps
Color space                      : YUV
Chroma subsampling               : 4:2:0
Bit depth                        : 8 bits
Scan type                        : Progressive
Bits/(Pixel*Frame)               : 0.064
Stream size                      : 1.68 GiB (75%)
Audio #1
ID                               : 2
Format                           : AC-3
Format/Info                      : Audio Coding 3
Mode extension                   : CM (complete main)
Muxing mode                      : Header stripping
Codec ID                         : A_AC3
Duration                         : 1h 43mn
Bit rate mode                    : Constant
Bit rate                         : 448 Kbps
Channel(s)                       : 6 channels
Channel positions                : Front: L C R, Side: L R, LFE
Sampling rate                    : 48.0 KHz
Bit depth                        : 16 bits
Compression mode                 : Lossy
Stream size                      : 331 MiB (14%)
Language                         : English
Audio #2
ID                               : 3
Format                           : AC-3
Format/Info                      : Audio Coding 3
Mode extension                   : CM (complete main)
Muxing mode                      : Header stripping
Codec ID                         : A_AC3
Duration                         : 1h 43mn
Bit rate mode                    : Constant
Bit rate                         : 256 Kbps
Channel(s)                       : 6 channels
Channel positions                : Front: L C R, Side: L R, LFE
Sampling rate                    : 48.0 KHz
Bit depth                        : 16 bits
Compression mode                 : Lossy
Delay relative to video          : 2s 500ms
Stream size                      : 189 MiB (8%)
Language                         : Hindi
Subtitle Languages               : English
Genres: Action | Adventure | Comedy | Crime                  
----Charlie's Angels-1(2000)Video Sample----
----Charlie's Angels-2 Full Throttle(2003)EX.Cut Sample Video
s
Rayne - Rayne (1979 us, folk rock with southern spirit - flac)/06.Rayne - Neighborhood.flac 34.781 MB
Rayne - Rayne (1979 us, folk rock with southern spirit - flac)/04.Rayne - No One Heard Her.flac 25.938 MB
Rayne - Rayne (1979 us, folk rock with southern spirit - flac)/05.Rayne - March.flac 21.393 MB
Gathering some info...

Register and log in Isohunt and see no captcha anymore!

4000 symbols left
Hash 1522353ec25f55ea852599991cd7ba4a507ac696