imdb
rating

6.2
Beautiful Creatures

Beautiful Creatures (2013)

Drama, Fantasy, Romance

Full description

Beautiful Creatures 2013 1080p x264 ACC - alrmothe

Size 6.916 GB   0 seeders     Added 2013-05-07 04:47:34

Stream torrent
Starting‥ You need BitLord! Get it from 1BitLord.com
To download or stream you need BitLord. Visit them at BitLord.com
***************************************************************

Beautiful Creatures 2013 1080p x264 ACC - alrmothe

***************************************************************

Title : Beautiful Creatures
YEAR: 2013
GENRE : Action | Crime | Thriller       
imdb URL :http://www.imdb.com/title/tt1559547/
Format: MP4
Overall bit rate: 7451 kbps
Format version: Version 4 / Version 2
File size: 6.44 GiB
Duration:  2h 03mn
sub: Arabic,English,French
***************************************************************

Video
Format : AVC 
Format/Info : Advanced Video Codec 
Format profile : High@L4.1 
Format settings, CABAC : Yes 
Format settings, ReFrames : 4 frames  
Codec ID : V_MPEG4/ISO/AVC  
Bit rate : 7000 kbps 
Width : 1920 pixels 
Height : 800 pixels 
Display aspect ratio : 16:9 
Frame rate : 23.976 fps 
Color space : YUV 
Chroma subsampling : 4:2:0 
Bit depth : 8 bits 
Scan type : Progressive 
Bits/(Pixel*Frame) : 0.190 
Stream size: 6.05 GiB 


Audio 
Format: ACC
Bit rate :448 Kbps
Channel(s) : 6 channels
Channel positions:Front: L C R, Side: L R, LFE
Sampling rate: 48.0 KHz
Bit depth: 24 bits
Compression mode: Lossy
Stream size: 396 GiB
Language : English

***************************************************************

[Source[/color 
image



[After Encoded [/color 
image





[color=red]Screenshots[/color] 
image 
image 
image 
image 
image 
image 
image
[img]image[/img]




Trailer



		
Beautiful Creatures 2013 1080p x264 ACC - alrmothe/beautiful creatures 2013 1080p ACC - alrmothe.mp4 6.916 GB
Beautiful Creatures 2013 1080p x264 ACC - alrmothe/cover.jpg 196.456 KB
Beautiful Creatures 2013 1080p x264 ACC - alrmothe/sub/English.srt 131.908 KB
Gathering some info...

Register and log in Isohunt and see no captcha anymore!

4000 symbols left
Hash 4d55fba48dceada3655cd4157098f91886cd07a7

Related torrents for "Beautiful Creatures 2013 1080p x264 ACC - alrmothe"

Torrent search:

x264 fullhd 2013