imdb
rating

8.7
Adventure Time

Adventure Time (2010)

Fantasy, Animation, Comedy

Full description

Adventure Time s05e19 James Baxter the Horse.mp4

Size 68.972 MB   0 seeders     Added 2013-05-07 07:21:50

Stream torrent
Starting‥ You need BitLord! Get it from BitLord.com
To download or stream you need BitLord. Visit them at BitLord.com
							A horse with special powers? What if you had the power to cheer up anyone that is sad? Well today's episode Finn and Jake meet a horse with the power to cheer up sad people.
 Video
 ID : 201
 Format : AVC
 Format/Info : Advanced Video Codec
 Format profile : High@L3.0
 Format settings, CABAC : Yes
 Format settings, ReFrames : 4 frames
 Codec ID : avc1
 Codec ID/Info : Advanced Video Coding
 Duration : 11mn 10s
 Bit rate : 750 Kbps
 Maximum bit rate : 6 820 Kbps
 Width : 720 pixels
 Height : 400 pixels
 Display aspect ratio : 16:9
 Frame rate mode : Constant
 Frame rate : 23.976 fps
 Color space : YUV
 Chroma subsampling : 4:2:0
 Bit depth : 8 bits
 Scan type : Progressive
 Bits/(Pixel*Frame) : 0.109
 Stream size : 58.9 MiB (90%)
 Writing library : x264 core 120 r2151 a3f4407
 Audio
 ID : 101
 Format : AAC
 Format/Info : Advanced Audio Codec
 Format profile : LC
 Codec ID : 40
 Duration : 11mn 10s
 Source duration : 11mn 10s
 Bit rate mode : Variable
 Bit rate : 82.7 Kbps
 Maximum bit rate : 125 Kbps
 Channel(s) : 2 channels
 Channel positions : Front: L R
 Sampling rate : 24.0 KHz
 Compression mode : Lossy
 Delay relative to video : 40ms
 Stream size : 6.61 MiB (10%)
 Source stream size : 6.62 MiB (10%)
 Tagged date : UTC 2013-05-06 23:45:29
						
Adventure Time s05e19 James Baxter the Horse.mp4 68.972 MB
Gathering some info...

Register and log in Isohunt and see no captcha anymore!

4000 symbols left
Hash 0955b5a50e00d26425cd48a3aa54843ff8ca4368

Related torrents for "Adventure Time s05e19 James Baxter the Horse.mp4"

Torrent search:

episode 19 season 05