imdb
rating

7.6
The Party

The Party (1968)

Comedy

Full description
quality   dvdrip dvdr

LMFAO Ft. Lauren Bennett & GoonRock - Party Rock Anthem [Music Video] 720p [Sbyky].mp4

Size 126.327 MB   7 seeders     Added 2013-05-07 09:03:26

Stream torrent
Starting‥ You need BitLord! Get it from 1BitLord.com
To download or stream you need BitLord. Visit them at BitLord.com
							
General
Complete name : LMFAO Ft. Lauren Bennett & GoonRock - Party Rock Anthem [Music Video] 720p [Sbyky].mp4
Format : MPEG-4
Format profile : Base Media / Version 2
Codec ID : mp42
File size : 120 MiB
Duration : 6mn 15s
Overall bit rate mode : Variable
Overall bit rate : 2 692 Kbps
Encoded date : UTC 2013-04-08 05:13:39
Tagged date : UTC 2013-04-08 05:13:39
Video
ID : 1
Format : AVC
Format/Info : Advanced Video Codec
Format profile : High@L3.1
Format settings, CABAC : Yes
Format settings, ReFrames : 1 frame
Format settings, GOP : M=1, N=60
Codec ID : avc1
Codec ID/Info : Advanced Video Coding
Duration : 6mn 15s
Bit rate : 2 498 Kbps
Maximum bit rate : 4 634 Kbps
Width : 1 280 pixels
Height : 720 pixels
Display aspect ratio : 16:9
Frame rate mode : Constant
Frame rate : 23.976 fps
Color space : YUV
Chroma subsampling : 4:2:0
Bit depth : 8 bits
Scan type : Progressive
Bits/(Pixel*Frame) : 0.113
Stream size : 112 MiB (93%)
Tagged date : UTC 2013-04-08 05:13:46
Audio
ID : 2
Format : AAC
Format/Info : Advanced Audio Codec
Format profile : LC
Codec ID : 40
Duration : 6mn 15s
Bit rate mode : Variable
Bit rate : 192 Kbps
Maximum bit rate : 202 Kbps
Channel(s) : 2 channels
Channel positions : Front: L R
Sampling rate : 44.1 KHz
Compression mode : Lossy
Stream size : 8.59 MiB (7%)
Title : IsoMedia File Produced by Google, 5-11-2011
Encoded date : UTC 2013-04-08 05:13:44
Tagged date : UTC 2013-04-08 05:13:46
Shared By Sbyky
LMFAO Ft. Lauren Bennett & GoonRock - Party Rock Anthem [Music Video] 720p [Sbyky].mp4 126.327 MB
Gathering some info...

Register and log in Isohunt and see no captcha anymore!

4000 symbols left
Hash b2dc4a3d485322d99ab4a4df5552c38490d04222

Related torrents for "LMFAO Ft. Lauren Bennett & GoonRock - Party Rock Anthem [Music Video] 720p [Sbyky].mp4"

Torrent search:

hd