LMFAO Ft. Lauren Bennett & GoonRock - Party Rock Anthem [Music Video] 1080p [Sbyky].mp4

Size 240.3 MB   23 seeders     Added 2013-05-07 09:52:25

Stream torrent
Starting‥ You need BitLord! Get it from BitLord.com
To download or stream you need BitLord. Visit them at BitLord.com
General
Complete name : LMFAO Ft. Lauren Bennett & GoonRock - Party Rock Anthem [Music Video] 1080p [Sbyky].mp4
Format : MPEG-4
Format profile : Base Media / Version 2
Codec ID : mp42
File size : 229 MiB
Duration : 6mn 15s
Overall bit rate mode : Variable
Overall bit rate : 5 121 Kbps
Encoded date : UTC 2013-04-08 05:14:06
Tagged date : UTC 2013-04-08 05:14:06
Video
ID : 1
Format : AVC
Format/Info : Advanced Video Codec
Format profile : [email protected]
/*  */

Format settings, CABAC : Yes
Format settings, ReFrames : 1 frame
Format settings, GOP : M=1, N=48
Codec ID : avc1
Codec ID/Info : Advanced Video Coding
Duration : 6mn 15s
Bit rate : 4 926 Kbps
Maximum bit rate : 9 040 Kbps
Width : 1 920 pixels
Height : 1 080 pixels
Display aspect ratio : 16:9
Frame rate mode : Constant
Frame rate : 23.976 fps
Color space : YUV
Chroma subsampling : 4:2:0
Bit depth : 8 bits
Scan type : Progressive
Bits/(Pixel*Frame) : 0.099
Stream size : 220 MiB (96%)
Tagged date : UTC 2013-04-08 05:14:29
Audio
ID : 2
Format : AAC
Format/Info : Advanced Audio Codec
Format profile : LC
Codec ID : 40
Duration : 6mn 15s
Bit rate mode : Variable
Bit rate : 192 Kbps
Maximum bit rate : 202 Kbps
Channel(s) : 2 channels
Channel positions : Front: L R
Sampling rate : 44.1 KHz
Compression mode : Lossy
Stream size : 8.59 MiB (4%)
Title : IsoMedia File Produced by Google, 5-11-2011
Encoded date : UTC 2013-04-08 05:14:23
Tagged date : UTC 2013-04-08 05:14:29
Shared By Sbyky
LMFAO Ft. Lauren Bennett & GoonRock - Party Rock Anthem [Music Video] 1080p [Sbyky].mp4 240.3 MB
Gathering some info...

Register and log in Isohunt and see no captcha anymore!

4000 symbols left
Hash aed53412f3a3dda75c6ae6ae4dee2f33fa3ad3ac