imdb
rating

6.1
The Birthday

The Birthday (2004)

Full description
quality   hd fullhd x264 hdtv

2 Chainz Ft. Kanye West - Birthday Song [Explicit] 1080p [Sbyky].mp4

Size 229.617 MB   0 seeders     Added 2013-05-07 12:21:25

Stream torrent
Starting‥ You need BitLord! Get it from 1BitLord.com
To download or stream you need BitLord. Visit them at BitLord.com
							
General
Complete name : 2 Chainz Ft. Kanye West - Birthday Song [Explicit] 1080p [Sbyky].mp4
Format : MPEG-4
Format profile : Base Media / Version 2
Codec ID : mp42
File size : 219 MiB
Duration : 5mn 8s
Overall bit rate mode : Variable
Overall bit rate : 5 950 Kbps
Encoded date : UTC 2013-04-08 08:19:09
Tagged date : UTC 2013-04-08 08:19:09
Video
ID : 1
Format : AVC
Format/Info : Advanced Video Codec
Format profile : High@L4.0
Format settings, CABAC : Yes
Format settings, ReFrames : 1 frame
Format settings, GOP : M=1, N=48
Codec ID : avc1
Codec ID/Info : Advanced Video Coding
Duration : 5mn 8s
Bit rate : 5 756 Kbps
Maximum bit rate : 11.9 Mbps
Width : 1 920 pixels
Height : 1 080 pixels
Display aspect ratio : 16:9
Frame rate mode : Constant
Frame rate : 23.976 fps
Color space : YUV
Chroma subsampling : 4:2:0
Bit depth : 8 bits
Scan type : Progressive
Bits/(Pixel*Frame) : 0.116
Stream size : 212 MiB (97%)
Tagged date : UTC 2013-04-08 08:19:30
Audio
ID : 2
Format : AAC
Format/Info : Advanced Audio Codec
Format profile : LC
Codec ID : 40
Duration : 5mn 8s
Bit rate mode : Variable
Bit rate : 192 Kbps
Maximum bit rate : 202 Kbps
Channel(s) : 2 channels
Channel positions : Front: L R
Sampling rate : 44.1 KHz
Compression mode : Lossy
Stream size : 7.07 MiB (3%)
Title : IsoMedia File Produced by Google, 5-11-2011
Encoded date : UTC 2013-04-08 08:19:26
Tagged date : UTC 2013-04-08 08:19:30
Shared By Sbyky
2 Chainz Ft. Kanye West - Birthday Song [Explicit] 1080p [Sbyky].mp4 229.617 MB
Gathering some info...

Register and log in Isohunt and see no captcha anymore!

4000 symbols left
Hash 298509dd6217f11f7058059a64b3acb46af8be77

Related torrents for "2 Chainz Ft. Kanye West - Birthday Song [Explicit] 1080p [Sbyky].mp4"

Torrent search:

fullhd