imdb
rating

4.1
Halloween: Resurrection

Halloween: Resurrection (2002)

Horror, Thriller

Full description
quality   bd dvdrip x264 hd

Halloween Resurgence-wk3d.mp4

Size 688.987 MB   11 seeders     Added 2013-05-07 14:07:35

Stream torrent
Starting‥ You need BitLord! Get it from 1BitLord.com
To download or stream you need BitLord. Visit them at BitLord.com
***This is a Fan Film***
***This is a Fan Film***
Five friends reunite in the sleepy town of Haddonfield, Illinois for a Halloween Weekend full of fun. As the town still reels from it's haunted past, the friends travel to nearby Warren county to investigate the now closed Sanitarium where Dr. Sam Loomis once treated unstoppable killer Michael Myers.
***This is a Fan Film***
I have to give it to these guy's. I am a Myer's Freak and seen alot
of fan films. This one take's the cake so those of you's out there
that can't get enough/awaiting Myer's return...
Check out the Trailer 
Format                                   : MPEG-4
Format profile                           : Base Media / Version 2
Codec ID                                 : mp42
File size                                : 657 MiB
Duration                                 : 55mn 11s
Overall bit rate mode                    : Variable
Overall bit rate                         : 1 665 Kbps
Writing application                      : HandBrake 0.9.8 2012071700
Video
ID                                       : 1
Format                                   : AVC
Format/Info                              : Advanced Video Codec
Format profile                           : Main@L3.1
Format settings, CABAC                   : Yes
Format settings, ReFrames                : 4 frames
Codec ID                                 : avc1
Codec ID/Info                            : Advanced Video Coding
Duration                                 : 55mn 11s
Bit rate mode                            : Variable
Bit rate                                 : 1 500 Kbps
Width                                    : 1 280 pixels
Height                                   : 720 pixels
Display aspect ratio                     : 16:9
Frame rate mode                          : Variable
Frame rate                               : 23.976 fps
Minimum frame rate                       : 23.974 fps
Maximum frame rate                       : 23.981 fps
Color space                              : YUV
Chroma subsampling                       : 4:2:0
Bit depth                                : 8 bits
Scan type                                : Progressive
Bits/(Pixel*Frame)                       : 0.068
Stream size                              : 592 MiB (90%)
Writing library                          : x264 core 120
Audio
ID                                       : 2
Format                                   : AAC
Format/Info                              : Advanced Audio Codec
Format profile                           : LC
Codec ID                                 : 40
Duration                                 : 55mn 11s
Bit rate mode                            : Variable
Bit rate                                 : 160 Kbps
Maximum bit rate                         : 253 Kbps
Channel(s)                               : 2 channels
Channel positions                        : Front: L R
Sampling rate                            : 44.1 KHz
Compression mode                         : Lossy
Delay relative to video                  : 83ms
Stream size                              : 63.1 MiB (10%)
Halloween Resurgence-wk3d.mp4 688.987 MB
Gathering some info...

Register and log in Isohunt and see no captcha anymore!

4000 symbols left
Hash d18dfd972b6bba1f64861b50a6a2426b568c7fb9

Related torrents for "Halloween Resurgence-wk3d.mp4"