imdb
rating

7.3
Iron Man 3

Iron Man 3 (2013)

Action, Adventure, Science Fiction

Full description

{www.scenetime.com}Iron Man 3 2013 FULL CAM NEW AUDIO XViD - JUSTICE

Size 1.525 GB   0 seeders     Added 2013-05-07 15:31:36

Stream torrent
Starting‥ You need BitLord! Get it from BitLord.com
To download or stream you need BitLord. Visit them at BitLord.com
.::::JOIN  http://www.SceneTime.com    Sign up is OPEN for now!::::....

....::::JOIN  http://www.SceneTime.com   Sign up is OPEN for now!::::....

.....:::::JOIN  http://www.SceneTime.com   Sign up is OPEN for now!::::....

......::::::JOIN  http://www.SceneTime.com   Sign up is OPEN for now!::::....


**********************************************************************************

Love for All and Sharing is the first step to solving all the problems of humanity.

Website I want to share.
             
                     
http://SceneTime.com


- Latest Releases
- Super Fast Speeds
- Good Community
- Competitions with prizes (yay)
- Love for the Scene


Credit to EVERYONE for sharing and seeding back
especially to SceneTime where i get all my
downloads.

For more info about this release, open .NFO file with notepad !!!
Support scenetime to grow faster.

*************************************************************************************

....::::JOIN   http://www.SceneTime.com    Sign up is OPEN for now!::::....
....::::JOIN   http://www.SceneTime.com    Sign up is OPEN for now!::::....



Iron Man 3 2013  FULL CAM NEW AUDIO XViD - JUSTICE



SOURCE : video beowulf / Special Friend
        audio Special Friend

Video and audio both cleaned and given justice.
Check sample and see.....


Ok had a new source shared with us but was lower Q ...and had a small res of 352x however the audio was
better and the film was complete ( check runtime of 1hr 59mins 47secs compared to the rest ).

So....took our rip of the beowulf release and resyncd this new audio and also added the missing video in
aswell 

Both video and audio have all been cleaned aswell and would be here all day stating whats been done....
So check the sample and you'll see how the 2 videos blend together to full missing scenes.



Video
ID                               : 0
Format                           : MPEG-4 Visual
Format profile                   : Advanced Simple@L5
Format settings, BVOP            : 2
Format settings, QPel            : No
Format settings, GMC             : No warppoints
Format settings, Matrix          : Default (MPEG)
Muxing mode                      : Packed bitstream
Codec ID                         : XVID
Codec ID/Hint                    : XviD
Duration                         : 1h 59mn
Bit rate                         : 1 533 Kbps
Width                            : 720 pixels
Height                           : 288 pixels
Display aspect ratio             : 2.500
Frame rate                       : 25.000 fps
Color space                      : YUV
Chroma subsampling               : 4:2:0
Bit depth                        : 8 bits
Scan type                        : Progressive
Compression mode                 : Lossy
Bits/(Pixel*Frame)               : 0.296
Stream size                      : 1.28 GiB (92%)
Writing library                  : XviD 64

Audio
ID                               : 1
Format                           : MPEG Audio
Format version                   : Version 1
Format profile                   : Layer 3
Codec ID                         : 55
Codec ID/Hint                    : MP3
Duration                         : 1h 59mn
Bit rate mode                    : Constant
Bit rate                         : 128 Kbps
Channel(s)                       : 2 channels
Sampling rate                    : 48.0 KHz
Compression mode                 : Lossy
Stream size                      : 110 MiB (8%)
Alignment                        : Split accross interleaves
Interleave, duration             : 40 ms (1.00 video frame)
Interleave, preload duration     : 500 ms



		
{www.scenetime.com}Iron Man 3 2013 FULL CAM NEW AUDIO XViD - JUSTICE/Iron Man 3 2013 FULL CAM NEW AUDIO XViD - JUSTICE.avi 1.501 GB
{www.scenetime.com}Iron Man 3 2013 FULL CAM NEW AUDIO XViD - JUSTICE/sample.avi 23.247 MB
{www.scenetime.com}Iron Man 3 2013 FULL CAM NEW AUDIO XViD - JUSTICE/Iron Man 3 2013 FULL CAM NEW AUDIO XViD - JUSTICE.avi_thumbs_[2013.05.02_21.32.24].png 360.48 KB
Gathering some info...

Register and log in Isohunt and see no captcha anymore!

4000 symbols left
Hash 139423e12a5c1acf4956f86962fa3808627cdf7e

Related torrents for "{www.scenetime.com}Iron Man 3 2013 FULL CAM NEW AUDIO XViD - JUSTICE"

Torrent search:

cam 2013