michaelbuble_fullshow_cr_0430.mp4

Size 661.618 MB   0 seeders     Added 2013-05-08 00:02:36

Stream torrent
Starting‥ You need BitLord! Get it from BitLord.com
To download or stream you need BitLord. Visit them at BitLord.com
Michael Bublé: Live from Webster Hall, NYC. 30 April 2007

49 min 


Format                                   : MPEG-4
Format profile                           : Base Media
Codec ID                                 : isom
File size                                : 631 MiB
Duration                                 : 50mn 57s
Overall bit rate mode                    : Variable
Overall bit rate                         : 1 731 Kbps
Genre                                    : MyVideo
Writing application                      : DigiArty AV Encoder Core

Video
ID                                       : 1
Format                                   : MPEG-4 Visual
Format profile                           : Simple@L1
Format settings, BVOP                    : No
Format settings, QPel                    : No
Format settings, GMC                     : No warppoints
Format settings, Matrix                  : Default (H.263)
Codec ID                                 : 20
Duration                                 : 50mn 57s
Bit rate                                 : 1 599 Kbps
Width                                    : 720 pixels
Height                                   : 480 pixels
Display aspect ratio                     : 3:2
Frame rate mode                          : Constant
Frame rate                               : 23.976 fps
Standard                                 : NTSC
Color space                              : YUV
Chroma subsampling                       : 4:2:0
Bit depth                                : 8 bits
Scan type                                : Progressive
Compression mode                         : Lossy
Bits/(Pixel*Frame)                       : 0.193
Stream size                              : 583 MiB (92%)
Writing library                          : DigiArty AV Encoder Core

Audio
ID                                       : 2
Format                                   : AAC
Format/Info                              : Advanced Audio Codec
Format profile                           : LC
Codec ID                                 : 40
Duration                                 : 50mn 57s
Bit rate mode                            : Variable
Bit rate                                 : 128 Kbps
Channel(s)                               : 2 channels
Channel positions                        : Front: L R
Sampling rate                            : 44.1 KHz
Compression mode                         : Lossy
Stream size                              : 46.7 MiB (7%)		
michaelbuble_fullshow_cr_0430.mp4 661.618 MB
Gathering some info...

Register and log in Isohunt and see no captcha anymore!

4000 symbols left
Hash 8b75e120f3cd4648a9c969b950afe3831636eb6d