imdb
rating

7.3
Unlucky

Unlucky (2016)

Full description

Lucky Di Unlucky Story 2013 [Punjabi Movie] [1CD CamRip].avi Verified

Size 683.439 MB   14 seeders     Added 2013-05-08 02:08:34

Stream torrent
Starting‥ You need BitLord! Get it from BitLord.com
10
To download or stream you need BitLord. Visit them at BitLord.com
Lucky Di Unlucky Story 2013 [Punjabi Movie]General
Complete name                            : Di Unlucky Story 2013 [Punjabi Movie] [1CD CamRip].avi
Format                                   : AVI
Format/Info                              : Audio Video Interleave
File size                                : 652 MiB
Duration                                 : 1h 44mn
Overall bit rate                         : 874 Kbps
Writing application                      : Lavf51.12.1Video
ID                                       : 0
Format                                   : xvid
Codec ID                                 : xvid
Duration                                 : 1h 44mn
Bit rate                                 : 800 Kbps
Width                                    : 608 pixels
Height                                   : 300 pixels
Display aspect ratio                     : 2.027
Frame rate                               : 23.976 fps
Bits/(Pixel*Frame)                       : 0.183
Stream size                              : 597 MiB (92%)Audio
ID                                       : 1
Format                                   : MPEG Audio
Format version                           : Version 1
Format profile                           : Layer 3
Mode                                     : Joint stereo
Mode extension                           : MS Stereo
Codec ID                                 : 55
Codec ID/Hint                            : MP3
Duration                                 : 1h 44mn
Bit rate mode                            : Constant
Bit rate                                 : 64.0 Kbps
Channel(s)                               : 2 channels
Sampling rate                            : 32.0 KHz
Compression mode                         : Lossy
Stream size                              : 47.7 MiB (7%)
Alignment                                : Aligned on interleaves
Interleave, duration                     : 36 ms (0.86 video frame)ScreenShots
Lucky Di Unlucky Story 2013 [Punjabi Movie] [1CD CamRip].avi 683.439 MB
Gathering some info...

Register and log in Isohunt and see no captcha anymore!

4000 symbols left
Hash 9a44869840edfdac4fc502cad533be3ece0e92a2

Related torrents for "Lucky Di Unlucky Story 2013 [Punjabi Movie] [1CD CamRip].avi"

Torrent search:

cam 2013