imdb
rating

7.6
The Commitments

The Commitments (1991)

Drama, Music

Full description
quality   dvdrip x264 dvdr hd

The Commitments (1991) DVDRip XviD AC3 peaSoup Verified

Size 1.58 GB   7 seeders     Added 2013-05-08 03:53:37

Stream torrent
Starting‥ You need BitLord! Get it from 1BitLord.com
7.5
To download or stream you need BitLord. Visit them at BitLord.com
List:
http://www.imdb.com/title/tt0101605/
List:
List:
The travails of Jimmy Rabbitte to form the "World's Hardest Working Band," The Commitments, and bring soul music to the people of Dublin, Ireland.
List:

List:
Format : AVI
Format/Info : Audio Video Interleave
Format profile : OpenDML
File size : 1.46 GiB
Duration : 1h 52mn
Overall bit rate : 1 857 Kbps
Movie name : The Commitments (1991) DVDRip XviD AC3 peaSoup
Writing application : Lavf53.21.0
Original source form/Name : THE_COMMITMENTS_DISC_1
Video
ID : 0
Format : MPEG-4 Visual
Format profile : Advanced Simple@L5
Format settings, BVOP : 2
Format settings, QPel : No
Format settings, GMC : No warppoints
Format settings, Matrix : Default (H.263)
Muxing mode : Packed bitstream
Codec ID : XVID
Codec ID/Hint : XviD
Duration : 1h 52mn
Bit rate : 1 396 Kbps
Width : 720 pixels
Height : 388 pixels
Display aspect ratio : 1.85:1
Frame rate : 25.000 fps
Color space : YUV
Chroma subsampling : 4:2:0
Bit depth : 8 bits
Scan type : Progressive
Compression mode : Lossy
Bits/(Pixel*Frame) : 0.200
Stream size : 1.10 GiB (75%)
Writing library : XviD 1.2.1 (UTC 2008-12-04)
Audio
ID : 1
Format : AC-3
Format/Info : Audio Coding 3
Mode extension : CM (complete main)
Format settings, Endianness : Big
Codec ID : 2000
Duration : 1h 52mn
Bit rate mode : Constant
Bit rate : 448 Kbps
Channel(s) : 6 channels
Channel positions : Front: L C R, Side: L R, LFE
Sampling rate : 48.0 KHz
Bit depth : 16 bits
Compression mode : Lossy
Stream size : 362 MiB (24%)
Alignment : Aligned on interleaves
Interleave, duration : 32 ms (0.80 video frame)
The Commitments (1991) DVDRip XviD AC3 peaSoup/The Commitments (1991) DVDRip XviD AC3 peaSoup.avi 1.571 GB
The Commitments (1991) DVDRip XviD AC3 peaSoup/The Commitments (1991) DVDRip XviD AC3 peaSoup.idx 112.544 KB
The Commitments (1991) DVDRip XviD AC3 peaSoup/The Commitments (1991) DVDRip XviD AC3 peaSoup.sub 8.948 MB
Gathering some info...

Register and log in Isohunt and see no captcha anymore!

4000 symbols left
Hash e3fee82b47c4ea0df57747b0f7cf88374880b9b0

Related torrents for "The Commitments (1991) DVDRip XviD AC3 peaSoup"

Torrent search:

dvdrip 1991