Meek Mill Ft. Rick Ross - Believe It [Music Video] 1080p [Sbyky].mp4

Size 109.773 MB   39 seeders     Added 2013-05-08 10:50:26

Stream torrent
Starting‥ You need BitLord! Get it from BitLord.com
To download or stream you need BitLord. Visit them at BitLord.com
General
Complete name : Meek Mill Ft. Rick Ross - Believe It [Music Video] 1080p [Sbyky].mp4
Format : MPEG-4
Format profile : Base Media / Version 2
Codec ID : mp42
File size : 105 MiB
Duration : 4mn 18s
Overall bit rate mode : Variable
Overall bit rate : 3 392 Kbps
Encoded date : UTC 2013-04-09 02:07:13
Tagged date : UTC 2013-04-09 02:07:13
Video
ID : 1
Format : AVC
Format/Info : Advanced Video Codec
Format profile : [email protected]
/*  */

Format settings, CABAC : Yes
Format settings, ReFrames : 1 frame
Format settings, GOP : M=1, N=48
Codec ID : avc1
Codec ID/Info : Advanced Video Coding
Duration : 4mn 18s
Bit rate : 3 198 Kbps
Maximum bit rate : 7 019 Kbps
Width : 1 920 pixels
Height : 1 080 pixels
Display aspect ratio : 16:9
Frame rate mode : Constant
Frame rate : 23.976 fps
Color space : YUV
Chroma subsampling : 4:2:0
Bit depth : 8 bits
Scan type : Progressive
Bits/(Pixel*Frame) : 0.064
Stream size : 98.7 MiB (94%)
Tagged date : UTC 2013-04-09 02:07:22
Audio
ID : 2
Format : AAC
Format/Info : Advanced Audio Codec
Format profile : LC
Codec ID : 40
Duration : 4mn 18s
Bit rate mode : Variable
Bit rate : 192 Kbps
Maximum bit rate : 201 Kbps
Channel(s) : 2 channels
Channel positions : Front: L R
Sampling rate : 44.1 KHz
Compression mode : Lossy
Stream size : 5.93 MiB (6%)
Title : IsoMedia File Produced by Google, 5-11-2011
Encoded date : UTC 2013-04-09 02:07:19
Tagged date : UTC 2013-04-09 02:07:22
Shared By Sbyky
Meek Mill Ft. Rick Ross - Believe It [Music Video] 1080p [Sbyky].mp4 109.773 MB
Gathering some info...

Register and log in Isohunt and see no captcha anymore!

4000 symbols left
Hash b4403a01a07eef3f862b4e406b6d62da188e49ce

Related torrents for "Meek Mill Ft. Rick Ross - Believe It [Music Video] 1080p [Sbyky].mp4"