Meek Mill Ft. Rick Ross - Believe It [Music Video] 720p [Sbyky].mp4

Size 58.585 MB   0 seeders     Added 2013-05-08 10:50:50

Stream torrent
Starting‥ You need BitLord! Get it from BitLord.com
To download or stream you need BitLord. Visit them at BitLord.com
General
Complete name : Meek Mill Ft. Rick Ross - Believe It [Music Video] 720p [Sbyky].mp4
Format : MPEG-4
Format profile : Base Media / Version 2
Codec ID : mp42
File size : 55.9 MiB
Duration : 4mn 18s
Overall bit rate mode : Variable
Overall bit rate : 1 810 Kbps
Encoded date : UTC 2013-04-09 02:06:47
Tagged date : UTC 2013-04-09 02:06:47
Video
ID : 1
Format : AVC
Format/Info : Advanced Video Codec
Format profile : [email protected]
/*  */

Format settings, CABAC : Yes
Format settings, ReFrames : 1 frame
Codec ID : avc1
Codec ID/Info : Advanced Video Coding
Duration : 4mn 18s
Bit rate : 1 616 Kbps
Maximum bit rate : 4 093 Kbps
Width : 1 280 pixels
Height : 720 pixels
Display aspect ratio : 16:9
Frame rate mode : Constant
Frame rate : 23.976 fps
Color space : YUV
Chroma subsampling : 4:2:0
Bit depth : 8 bits
Scan type : Progressive
Bits/(Pixel*Frame) : 0.073
Stream size : 49.9 MiB (89%)
Tagged date : UTC 2013-04-09 02:07:13
Audio
ID : 2
Format : AAC
Format/Info : Advanced Audio Codec
Format profile : LC
Codec ID : 40
Duration : 4mn 18s
Bit rate mode : Variable
Bit rate : 192 Kbps
Maximum bit rate : 201 Kbps
Channel(s) : 2 channels
Channel positions : Front: L R
Sampling rate : 44.1 KHz
Compression mode : Lossy
Stream size : 5.93 MiB (11%)
Title : IsoMedia File Produced by Google, 5-11-2011
Encoded date : UTC 2013-04-09 02:07:03
Tagged date : UTC 2013-04-09 02:07:13
Shared By Sbyky
Meek Mill Ft. Rick Ross - Believe It [Music Video] 720p [Sbyky].mp4 58.585 MB
Gathering some info...

Register and log in Isohunt and see no captcha anymore!

4000 symbols left
Hash 266b5a3d3085956478233332ced297dd5aecb40f

Related torrents for "Meek Mill Ft. Rick Ross - Believe It [Music Video] 720p [Sbyky].mp4"