Nicki Minaj Ft. Lil Wayne - High School [Explicit] 720p [Sbyky].mp4

Size 50.002 MB   0 seeders     Added 2013-05-08 10:52:38

Stream torrent
Starting‥ You need BitLord! Get it from BitLord.com
To download or stream you need BitLord. Visit them at BitLord.com
General
Complete name : Nicki Minaj Ft. Lil Wayne - High School [Explicit] 720p [Sbyky].mp4
Format : MPEG-4
Format profile : Base Media / Version 2
Codec ID : mp42
File size : 47.7 MiB
Duration : 4mn 6s
Overall bit rate mode : Variable
Overall bit rate : 1 621 Kbps
Encoded date : UTC 2013-04-08 07:03:18
Tagged date : UTC 2013-04-08 07:03:18
Video
ID : 1
Format : AVC
Format/Info : Advanced Video Codec
Format profile : [email protected]
/*  */

Format settings, CABAC : Yes
Format settings, ReFrames : 1 frame
Format settings, GOP : M=1, N=60
Codec ID : avc1
Codec ID/Info : Advanced Video Coding
Duration : 4mn 6s
Bit rate : 1 426 Kbps
Maximum bit rate : 4 480 Kbps
Width : 1 280 pixels
Height : 720 pixels
Display aspect ratio : 16:9
Frame rate mode : Constant
Frame rate : 23.976 fps
Color space : YUV
Chroma subsampling : 4:2:0
Bit depth : 8 bits
Scan type : Progressive
Bits/(Pixel*Frame) : 0.065
Stream size : 42.0 MiB (88%)
Tagged date : UTC 2013-04-08 07:03:41
Audio
ID : 2
Format : AAC
Format/Info : Advanced Audio Codec
Format profile : LC
Codec ID : 40
Duration : 4mn 6s
Bit rate mode : Variable
Bit rate : 192 Kbps
Maximum bit rate : 201 Kbps
Channel(s) : 2 channels
Channel positions : Front: L R
Sampling rate : 44.1 KHz
Compression mode : Lossy
Stream size : 5.65 MiB (12%)
Title : IsoMedia File Produced by Google, 5-11-2011
Encoded date : UTC 2013-04-08 07:03:38
Tagged date : UTC 2013-04-08 07:03:41
Shared By Sbyky
Nicki Minaj Ft. Lil Wayne - High School [Explicit] 720p [Sbyky].mp4 50.002 MB
Gathering some info...

Register and log in Isohunt and see no captcha anymore!

4000 symbols left
Hash 5b2879e365e4ae98857ad2b25b15868855c0a7af

Related torrents for "Nicki Minaj Ft. Lil Wayne - High School [Explicit] 720p [Sbyky].mp4"