imdb
rating

8.4
Amélie

Amélie (2001)

Comedy, Romance

Full description
quality   fullhd bd h264 hd x264 dvdrip

Amélie [2001] 720p BRRip H264 AC3 - CODY Verified

Size 1.935 GB   0 seeders     Added 2013-05-08 13:02:35

Stream torrent
Starting‥ You need BitLord! Get it from BitLord.com
10
To download or stream you need BitLord. Visit them at BitLord.com
General
Complete name                            : Amélie [2001] 720p BRRip H264 AC3 - CODY.mp4
Format                                   : MPEG-4
Format profile                           : Base Media
Codec ID                                 : isom
File size                                : 1.80 GiB
Duration                                 : 2h 1mn
Overall bit rate mode                    : Variable
Overall bit rate                         : 2 120 Kbps
Encoded date                             : UTC 2013-04-29 18:23:56

Video
ID                                       : 1
Format                                   : AVC
Format/Info                              : Advanced Video Codec
Format profile                           : High@L4.1
Format settings, CABAC                   : Yes
Format settings, ReFrames                : 5 frames
Codec ID                                 : avc1
Codec ID/Info                            : Advanced Video Coding
Duration                                 : 2h 1mn
Bit rate mode                            : Variable
Bit rate                                 : 1 670 Kbps
Maximum bit rate                         : 20.0 Mbps
Width                                    : 1 280 pixels
Height                                   : 544 pixels
Display aspect ratio                     : 2.35:1
Frame rate mode                          : Constant
Frame rate                               : 23.976 fps
Color space                              : YUV
Chroma subsampling                       : 4:2:0
Bit depth                                : 8 bits
Scan type                                : Progressive
Bits/(Pixel*Frame)                       : 0.100
Stream size                              : 1.42 GiB (79%)
Writing library                          : x264 core 130 r2273 b3065e6
Encoding settings                        : rc=2pass
Color primaries                          : Generic film

Audio
ID                                       : 2
Format                                   : AC-3
Format/Info                              : Audio Coding 3
Mode extension                           : CM (complete main)
Format settings, Endianness              : Big
Codec ID                                 : ac-3
Duration                                 : 2h 1mn
Bit rate mode                            : Constant
Bit rate                                 : 448 Kbps
Channel(s)                               : 6 channels
Channel positions                        : Front: L C R, Side: L R, LFE
Sampling rate                            : 48.0 KHz
Bit depth                                : 16 bits
Compression mode                         : Lossy
Delay relative to video                  : 125ms
Stream size                              : 390 MiB (21%)

Audio language                           : French

IMDB link:                                 http://www.imdb.com/title/tt0211915/

Subtitles included                       : English, Romanian, Russian

Please seed at least 1,5:1 . This way this torrent has a chance to survive !

Thanks . Enjoy !!	
						
Amélie [2001] 720p BRRip H264 AC3 - CODY/Amélie [2001] 720p BRRip H264 AC3 - CODY.English.srt 78.387 KB
Amélie [2001] 720p BRRip H264 AC3 - CODY/Amélie [2001] 720p BRRip H264 AC3 - CODY.mp4 1.934 GB
Amélie [2001] 720p BRRip H264 AC3 - CODY/Amélie [2001] 720p BRRip H264 AC3 - CODY.Russian.srt 116.681 KB
Gathering some info...

Register and log in Isohunt and see no captcha anymore!

4000 symbols left
Hash 1e80439694e9e6fff1a74a50bdf4b4a726a2403b

Related torrents for "Amélie [2001] 720p BRRip H264 AC3 - CODY"

Torrent search:

h264 2001 hd bd