Darna

Darna (2005)

Action, Drama, Family, Fantasy, Romance/Dating, Sci-Fi

Full description

Pyaar.Kiya.To.Darna.Kya.720p.BluRay.nHD.x264-NhaNc3.mkv

Size 2.346 GB   0 seeders     Added 2013-05-08 14:01:35

Stream torrent
Starting‥ You need BitLord! Get it from BitLord.com
To download or stream you need BitLord. Visit them at BitLord.com
 image 
image 
image 
image 
image
 
image
Video
ID : 1
Format : AVC
Format/Info : Advanced Video Codec
Format profile : High@L4.1
Format settings, CABAC : Yes
Format settings, ReFrames : 8 frames
Codec ID : V_MPEG4/ISO/AVC
Duration : 2h 36mn
Bit rate : 1 771 Kbps
Width : 1 280 pixels
Height : 544 pixels
Display aspect ratio : 2.35:1
Frame rate : 24.000 fps
Color space : YUV
Chroma subsampling : 4:2:0
Bit depth : 8 bits
Scan type : Progressive
Bits/(Pixel*Frame) : 0.106
Stream size : 1.90 GiB (87%)
Writing library : x264 core 98 r1649 20cbe10
Language : English
Default : No
Forced : No

Audio
ID : 2
Format : AC-3
Format/Info : Audio Coding 3
Mode extension : CM (complete main)
Codec ID : A_AC3
Duration : 2h 36mn
Bit rate mode : Constant
Bit rate : 224 Kbps
Channel(s) : 2 channels
Channel positions : Front: L R
Sampling rate : 48.0 KHz
Bit depth : 16 bits
Compression mode : Lossy
Stream size : 251 MiB (11%)
Default : Yes
Forced : No

Text
ID : 3
Format : UTF-8
Codec ID : S_TEXT/UTF8
Codec ID/Info : UTF-8 Plain Text
Title : DDR
Language : English
Default : No
Forced : No

Ripper : NhaNc3

Seeding 24x7... Extreme Seeding...

 
image
		
Pyaar.Kiya.To.Darna.Kya.720p.BluRay.nHD.x264-NhaNc3.mkv 2.346 GB
Gathering some info...

Register and log in Isohunt and see no captcha anymore!

4000 symbols left
Hash bd29fe0ace3b0366dcd0f33694ab6c204136c193

Related torrents for "Pyaar.Kiya.To.Darna.Kya.720p.BluRay.nHD.x264-NhaNc3.mkv"

Torrent search:

x264 hd bd