LMFAO - Sorry For Party Rocking [Music Video] 1080p [Sbyky].mp4 Verified

Size 302.95 MB   7 seeders     Added 2013-05-08 17:50:49

Stream torrent
Starting‥ You need BitLord! Get it from BitLord.com
To download or stream you need BitLord. Visit them at BitLord.com
General
Complete name : LMFAO - Sorry For Party Rocking [Music Video] 1080p [Sbyky].mp4
Format : MPEG-4
Format profile : Base Media / Version 2
Codec ID : mp42
File size : 289 MiB
Duration : 7mn 18s
Overall bit rate mode : Variable
Overall bit rate : 5 521 Kbps
Encoded date : UTC 2013-04-08 06:48:10
Tagged date : UTC 2013-04-08 06:48:10
Video
ID : 1
Format : AVC
Format/Info : Advanced Video Codec
Format profile : [email protected]
/*  */

Format settings, CABAC : Yes
Format settings, ReFrames : 1 frame
Format settings, GOP : M=1, N=48
Codec ID : avc1
Codec ID/Info : Advanced Video Coding
Duration : 7mn 18s
Bit rate : 5 327 Kbps
Maximum bit rate : 14.9 Mbps
Width : 1 920 pixels
Height : 1 080 pixels
Display aspect ratio : 16:9
Frame rate mode : Constant
Frame rate : 23.976 fps
Color space : YUV
Chroma subsampling : 4:2:0
Bit depth : 8 bits
Scan type : Progressive
Bits/(Pixel*Frame) : 0.107
Stream size : 279 MiB (96%)
Tagged date : UTC 2013-04-08 06:48:53
Audio
ID : 2
Format : AAC
Format/Info : Advanced Audio Codec
Format profile : LC
Codec ID : 40
Duration : 7mn 18s
Bit rate mode : Variable
Bit rate : 192 Kbps
Maximum bit rate : 202 Kbps
Channel(s) : 2 channels
Channel positions : Front: L R
Sampling rate : 44.1 KHz
Compression mode : Lossy
Stream size : 10.0 MiB (3%)
Title : IsoMedia File Produced by Google, 5-11-2011
Encoded date : UTC 2013-04-08 06:48:40
Tagged date : UTC 2013-04-08 06:48:53
Shared By Sbyky
LMFAO - Sorry For Party Rocking [Music Video] 1080p [Sbyky].mp4 302.95 MB
Gathering some info...

Register and log in Isohunt and see no captcha anymore!

4000 symbols left
Hash bf20cb5a60b509116b9c472ca705923d169b24d4

Related torrents for "LMFAO - Sorry For Party Rocking [Music Video] 1080p [Sbyky].mp4"