LMFAO - Sorry For Party Rocking [Music Video] 720p [Sbyky].mp4 Verified

Size 159.341 MB   14 seeders     Added 2013-05-08 17:50:50

Stream torrent
Starting‥ You need BitLord! Get it from BitLord.com
10
To download or stream you need BitLord. Visit them at BitLord.com
General
Complete name : LMFAO - Sorry For Party Rocking [Music Video] 720p [Sbyky].mp4
Format : MPEG-4
Format profile : Base Media / Version 2
Codec ID : mp42
File size : 152 MiB
Duration : 7mn 18s
Overall bit rate mode : Variable
Overall bit rate : 2 904 Kbps
Encoded date : UTC 2013-04-08 06:47:34
Tagged date : UTC 2013-04-08 06:47:34
Video
ID : 1
Format : AVC
Format/Info : Advanced Video Codec
Format profile : [email protected]
/*  */

Format settings, CABAC : Yes
Format settings, ReFrames : 1 frame
Format settings, GOP : M=1, N=60
Codec ID : avc1
Codec ID/Info : Advanced Video Coding
Duration : 7mn 18s
Bit rate : 2 710 Kbps
Maximum bit rate : 7 490 Kbps
Width : 1 280 pixels
Height : 720 pixels
Display aspect ratio : 16:9
Frame rate mode : Constant
Frame rate : 23.976 fps
Color space : YUV
Chroma subsampling : 4:2:0
Bit depth : 8 bits
Scan type : Progressive
Bits/(Pixel*Frame) : 0.123
Stream size : 142 MiB (93%)
Tagged date : UTC 2013-04-08 06:47:49
Audio
ID : 2
Format : AAC
Format/Info : Advanced Audio Codec
Format profile : LC
Codec ID : 40
Duration : 7mn 18s
Bit rate mode : Variable
Bit rate : 192 Kbps
Maximum bit rate : 202 Kbps
Channel(s) : 2 channels
Channel positions : Front: L R
Sampling rate : 44.1 KHz
Compression mode : Lossy
Stream size : 10.0 MiB (7%)
Title : IsoMedia File Produced by Google, 5-11-2011
Encoded date : UTC 2013-04-08 06:47:44
Tagged date : UTC 2013-04-08 06:47:49
Shared By Sbyky
LMFAO - Sorry For Party Rocking [Music Video] 720p [Sbyky].mp4 159.341 MB
Gathering some info...

Register and log in Isohunt and see no captcha anymore!

4000 symbols left
Hash 74b7d8d5a74cea10223ee115d2c1df05a0fc6a90

Related torrents for "LMFAO - Sorry For Party Rocking [Music Video] 720p [Sbyky].mp4"