Ace of Base Verified

Size 421.667 MB   0 seeders     Added 2013-05-08 18:16:37

Stream torrent
Starting‥ You need BitLord! Get it from BitLord.com
To download or stream you need BitLord. Visit them at BitLord.com
Flowers is the third album by Swedish pop music group, Ace of Base. It was released in June 1998 in Europe, Asia, and Africa, and August 10 in the United Kingdom. An American version, titled Cruel Summer, was released on September 1, later that year. The American version contained remixes of several of the original songs, and one new track. Britain, Japan, and Australia received hybrid versions of the two albums, retaining the original title in Britain and Australia and being called Cruel Summer in Japan.

Tracklist:

01. Ace of Base - Life Is a Flower (3:47)
02. Ace of Base - Always Have, Always Will (3:44)
03. Ace of Base - Cruel Summer (3:35)
04. Ace of Base - Travel to Romantis (4:10)
05. Ace of Base - Adventures in Paradise (3:32)
06. Ace of Base - Dr. Sun (3:36)
07. Ace of Base - Cecilia (3:56)
08. Ace of Base - He Decides (3:09)
09. Ace of Base - I Pray (3:13)
10. Ace of Base - Tokyo Girl (3:37)
11. Ace of Base - Don't Go Away (3:39)
12. Ace of Base - Captain Nemo (4:03)
13. Ace of Base - Donnie (4:36)
14. Ace of Base - Cruel Summer (Big Bonus mix) (4:09)

EAC LOG:

Exact Audio Copy V1.0 beta 3 from 29. August 2011

EAC extraction logfile from 8. May 2013, 10:44

Ace of Base / Flowers

Used drive : TSSTcorpCDDVDW TS-L633C Adapter: 0 ID: 0

Read mode : Secure
Utilize accurate stream : Yes
Defeat audio cache : Yes
Make use of C2 pointers : No

Read offset correction : 6
Overread into Lead-In and Lead-Out : No
Fill up missing offset samples with silence : Yes
Delete leading and trailing silent blocks : No
Null samples used in CRC calculations : Yes
Used interface : Native Win32 interface for Win NT & 2000

Used output format : Internal WAV Routines
Sample format : 44.100 Hz; 16 Bit; Stereo


TOC of the extracted CD

 Track | Start | Length | Start sector | End sector 
 ---------------------------------------------------------
 1 | 0:00.00 | 3:46.60 | 0 | 17009 
 2 | 3:46.60 | 3:44.10 | 17010 | 33819 
 3 | 7:30.70 | 3:35.25 | 33820 | 49969 
 4 | 11:06.20 | 4:09.70 | 49970 | 68714 
 5 | 15:16.15 | 3:31.39 | 68715 | 84578 
 6 | 18:47.54 | 3:36.14 | 84579 | 100792 
 7 | 22:23.68 | 3:56.03 | 100793 | 118495 
 8 | 26:19.71 | 3:09.09 | 118496 | 132679 
 9 | 29:29.05 | 3:12.64 | 132680 | 147143 
 10 | 32:41.69 | 3:37.05 | 147144 | 163423 
 11 | 36:18.74 | 3:38.41 | 163424 | 179814 
 12 | 39:57.40 | 4:02.52 | 179815 | 198016 
 13 | 44:00.17 | 4:35.64 | 198017 | 218705 
 14 | 48:36.06 | 4:09.29 | 218706 | 237409 


Range status and errors

Selected range

 Filename C:Ace of Base - FlowersAce of Base - Flowers.wav

 Peak level 100.0 %
 Extraction speed 4.0 X
 Range quality 100.0 %
 Test CRC 9E23F9C6
 Copy CRC 9E23F9C6
 Copy OK

No errors occurred


AccurateRip summary

Track 1 accurately ripped (confidence 3) [AA525B0E] (AR v1)
Track 2 accurately ripped (confidence 3) [E3E272AB] (AR v1)
Track 3 accurately ripped (confidence 3) [B0FD98EA] (AR v1)
Track 4 accurately ripped (confidence 3) [CF2C5758] (AR v1)
Track 5 accurately ripped (confidence 3) [0CBC9194] (AR v1)
Track 6 accurately ripped (confidence 3) [828ECD76] (AR v1)
Track 7 accurately ripped (confidence 3) [4A2B9002] (AR v1)
Track 8 accurately ripped (confidence 3) [AAFD6ED5] (AR v1)
Track 9 accurately ripped (confidence 3) [04C4AAA2] (AR v1)
Track 10 accurately ripped (confidence 3) [C2D26B46] (AR v1)
Track 11 accurately ripped (confidence 3) [DA0ADBEF] (AR v1)
Track 12 accurately ripped (confidence 3) [DD6B93F0] (AR v1)
Track 13 accurately ripped (confidence 3) [4365B740] (AR v1)
Track 14 accurately ripped (confidence 3) [06440AAE] (AR v1)

All tracks accurately ripped

End of status report

---- CUETools DB Plugin V2.1.4

[CTDB TOCID: uI.cg7kNdHFhvB7kl79rLir9res-] found
Submit result: uI.cg7kNdHFhvB7kl79rLir9res- has been confirmed
Track | CTDB Status
 1 | (1/1) Accurately ripped
 2 | (1/1) Accurately ripped
 3 | (1/1) Accurately ripped
 4 | (1/1) Accurately ripped
 5 | (1/1) Accurately ripped
 6 | (1/1) Accurately ripped
 7 | (1/1) Accurately ripped
 8 | (1/1) Accurately ripped
 9 | (1/1) Accurately ripped
 10 | (1/1) Accurately ripped
 11 | (1/1) Accurately ripped
 12 | (1/1) Accurately ripped
 13 | (1/1) Accurately ripped
 14 | (1/1) Accurately ripped


==== Log checksum 16E119B20BBD4E8CF54431FF1D60A06DA7795454029214C4DBF8E863A1714CCA ====
		
Ace of Base/1998 - Flowers/Covers/aobf.jpg 2.436 MB
Ace of Base/1998 - Flowers/Covers/aobf2.jpg 4.111 MB
Ace of Base/1998 - Flowers/Covers/aobf3.jpg 4.222 MB
Gathering some info...

Register and log in Isohunt and see no captcha anymore!

4000 symbols left
Hash 8ad8e37d106cbf56bf7507141b31785aa8c497e5

Related torrents for "Ace of Base"

Torrent search:

1998