imdb
rating

8.6
Supernatural

Supernatural (2005)

Drama, Mystery, Sci-Fi & Fantasy

Full description

Supernatural - 8x21 - The Great Escapist.HDTV.XviD (Sub Ita by okuto).avi

Size 361.512 MB   0 seeders     Added 2013-05-08 22:52:34

Stream torrent
Starting‥ You need BitLord! Get it from 1BitLord.com
To download or stream you need BitLord. Visit them at BitLord.com
Supernatural S08e21 The Great Escapist [HDTV - XviD - English Mp3 - Sub Italian] By okuto MIRCrew [TNT Village]
Sottotitoli italiani a cura di okuto che ringrazio
Episodi presenti:
S08e21 The Great Escapist
Titolo originale Supernatural
Paese Stati Uniti d'America
Anno 2005 – in produzione
Formato serie TV
Genere horror, thriller, fantasy
Stagioni 8
Episodi 149+++++
Durata 45 minuti (episodio)
Lingua originale inglese
Caratteristiche tecniche
Aspect ratio 16:9
Ideatore Eric Kripke
Produttore Kripke Enterprises, Wonderland Sound and Vision e Warner Bros. Television
Jared Padalecki: Sam Winchester
Jensen Ackles: Dean Winchester
Katie Cassidy: Ruby
Lauren Cohan: Bela Talbot
Misha Collins: Castiel
Doppiatori e personaggi
David Chevalier: Sam Winchester
Stefano Crescentini: Dean Winchester
Domitilla D'Amico: Ruby
Myriam Catania: Bela Talbot
Vittorio Guerrieri: Castiel
Sam e Dean si riuniscono dopo un anno di distanza - Dean riemerge dal Purgatorio, ma non è solo. Si dirige dritto da Sam, ma la reunion non è esattamente quello che pensava sarebbe stato. 
Per Sam ritornare con il fratello, lasciando la vita che si era creato risulta essere più difficile di quanto si immaginava. Dean e Sam cercano Kevin (guest star Osric Chau), che è riuscito 
a fuggire da Crowley (guest star Mark Sheppard) presa, ma le cose precipitano rapidamente quando Kevin dice loro che cosa vuole Crowley.
DATI FILE:
Complete name : Supernatural S08
Format : AVI
Format/Info : Audio Video Interleave
File size : 345 MiB
Duration : 41mn 21s
Overall bit rate : 1 166 Kbps
Writing library : VirtualDub build 32842/release
Video
ID : 0
Format : MPEG-4 Visual
Format profile : Advanced Simple@L5
Format settings, BVOP : Yes
Format settings, QPel : No
Format settings, GMC : No warppoints
Format settings, Matrix : Default (H.263)
Muxing mode : Packed bitstream
Codec ID : XVID
Codec ID/Hint : XviD
Duration : 41mn 21s
Bit rate : 1 026 Kbps
Width : 640 pixels
Height : 360 pixels
Display aspect ratio : 16:9
Frame rate : 23.976 fps
Color space : YUV
Chroma subsampling : 4:2:0
Bit depth : 8 bits
Scan type : Progressive
Bits/(Pixel*Frame) : 0.186
Stream size : 303 MiB (88%)
Writing library : XviD 1.1.2 (UTC 2006-11-01)
Audio
ID : 1
Format : MPEG Audio
Format version : Version 1
Format profile : Layer 3
Mode : Joint stereo
Mode extension : MS Stereo
Codec ID : 55
Codec ID/Hint : MP3
Duration : 41mn 21s
Bit rate mode : Variable
Bit rate : 128 Kbps
Channel(s) : 2 channels
Sampling rate : 48.0 KHz
Stream size : 37.9 MiB (11%)
Alignment : Aligned on interleaves
Interleave, duration : 24 ms (0.58 video frame)
Interleave, preload duration : 490 ms
Supernatural - 8x21 - The Great Escapist.HDTV.XviD (Sub Ita by okuto).avi 361.512 MB
Gathering some info...

Register and log in Isohunt and see no captcha anymore!

4000 symbols left
Hash 64840b5c3fde35446856a2de9923b77405062f72

Related torrents for "Supernatural - 8x21 - The Great Escapist.HDTV.XviD (Sub Ita by okuto).avi"

Torrent search:

italian hdtv season 08 episode 21