imdb
rating

5.4
The Power of Few

The Power of Few (2013)

Action, Crime, Drama, Mystery, Thriller

Full description
quality   h264 hd web-dl web-rip x264

The.Power.of.Few.2013.WEBRip XViD juggs

Size 743.853 MB   0 seeders     Added 2013-05-08 23:51:50

Stream torrent
Starting‥ You need BitLord! Get it from BitLord.com
To download or stream you need BitLord. Visit them at BitLord.com
Source : VoXHD(Thanks)
http://www.imdb.com/title/tt0817545/
Format : AVI
Format/Info : Audio Video Interleave
File size : 699 MiB
Duration : 1h 35mn
Overall bit rate : 1 019 Kbps
Writing library : VirtualDub build 32842/release
Video
ID : 0
Format : MPEG-4 Visual
Format profile : Advanced Simple@L5
Format settings, BVOP : 2
Format settings, QPel : No
Format settings, GMC : No warppoints
Format settings, Matrix : Default (H.263)
Muxing mode : Packed bitstream
Codec ID : XVID
Codec ID/Hint : XviD
Duration : 1h 35mn
Bit rate : 881 Kbps
Width : 640 pixels
Height : 352 pixels
Display aspect ratio : 16:9
Frame rate : 23.976 fps
Color space : YUV
Chroma subsampling : 4:2:0
Bit depth : 8 bits
Scan type : Progressive
Compression mode : Lossy
Bits/(Pixel*Frame) : 0.163
Stream size : 605 MiB (87%)
Writing library : XviD 64
Audio
ID : 1
Format : MPEG Audio
Format version : Version 1
Format profile : Layer 3
Codec ID : 55
Codec ID/Hint : MP3
Duration : 1h 35mn
Bit rate mode : Constant
Bit rate : 128 Kbps
Channel(s) : 2 channels
Sampling rate : 44.1 KHz
Compression mode : Lossy
Stream size : 87.8 MiB (13%)
Alignment : Split accross interleaves
Interleave, duration : 42 ms (1.00 video frame)
Interleave, preload duration : 500 ms
Writing library : LAME3.99r
Encoding settings : -m s -V 4 -q 3 -lowpass 17 -b 128
Plot
Religious conspiracy collides with urban crime in a story told from multiple perspectives.
[video=http://www.youtube.com/watch?v=r8UpTLP
The.Power.of.Few.2013.WEBRip XViD juggs/The.Power.of.Few.2013.WEBRip XViD juggs.avi 733.16 MB
The.Power.of.Few.2013.WEBRip XViD juggs/Torrent Downloaded From ExtraTorrent.com.txt 339 B
The.Power.of.Few.2013.WEBRip XViD juggs/sample.avi 10.693 MB
Gathering some info...

Register and log in Isohunt and see no captcha anymore!

4000 symbols left
Hash c32cadaead27d96ded78a6e662605c99197e5437

Related torrents for "The.Power.of.Few.2013.WEBRip XViD juggs"

Torrent search:

web-rip 2013