imdb
rating

4.8
And Now a Word from Our Sponsor

And Now a Word from Our Sponsor (2013)

Comedy

Full description

And.Now.a.Word.from.Our.Sponsor.2013.HDRip.XVID.AC3.HQ.Hive-PublicHash

Size 1.317 GB   0 seeders     Added 2013-05-09 04:40:49

Stream torrent
Starting‥ You need BitLord! Get it from BitLord.com
To download or stream you need BitLord. Visit them at BitLord.com
							And Now a Word from Our Sponsor (2013)
87 min - Comedy | Drama - 10 May 2013 (USA)
IMDB Rating: 3.2
An advertising CEO wakes up in the hospital speaking only in ad slogans.
Director : Zack Bernbaum
Writer : Michael Hamilton-Wright 
Bruce Greenwood	... Adan Kundle
Parker Posey	... Karen Hillridge
Callum Blue	... Lucas Foster
Allie MacDonald	... Meghan Hillridge
Rhys Ward	... Jason
Allison Dawn Doiron	... Jenny
Howard Rosenstein	... Senator James Allen
Natalie Radford	... Susan
Jamie Spilchuk	... Dr. Lewis
Paul James Saunders	... Chairman
James Wallis	... Ben
Garth Mercer	... Joe Salesman
Rachel Wilson	... Mary
Jessica Harmon	... Car Saleswoman
And.Now.a.Word.from.Our.Sponsor.2013.HDRip.XVID.AC3.HQ.Hive-CM8
Source: 1080p Web-Dl
Video: 720x304 @bitrate 1600 2pass
Audio: English AC3 5.1 @384
Subs: Yes, English in srt/subs
Sample: Yes, included
ENCODE
another brand new web-dl, quality was good, also has nice cast
cover doesnt look that great, but the movie is good
added brightness, sharpness, rgb and denoise
got very nice
enjoy
General
Complete name: And.Now.a.Word.from.Our.Sponsor.2013.HDRip.XVID.AC3.HQ.Hive-CM8.avi
Format: AVI
Format/Info: Audio Video Interleave
File size: 1.21 GiB
Duration: 1h 27mn
Overall bit rate: 1 993 Kbps
Writing application: Nandub v1.0rc2
Writing library: Nandub build 1853/release
Video
ID: 0
Format: MPEG-4 Visual
Format profile: Advanced Simple@L5
Format settings, BVOP: 2
Format settings, QPel: Yes
Format settings, GMC: No warppoints
Format settings, Matrix: Default (H.263)
Muxing mode: Packed bitstream
Codec ID: XVID
Codec ID/Hint: XviD
Duration: 1h 27mn
Bit rate: 1 600 Kbps
Width: 720 pixels
Height: 304 pixels
Display aspect ratio: 2.35:1
Frame rate: 23.976 fps
Color space: YUV
Chroma subsampling: 4:2:0
Bit depth: 8 bits
Scan type: Progressive
Compression mode: Lossy
Bits/(Pixel*Frame): 0.305
Stream size: 996 MiB (80%)
Writing library: XviD 1.2.1 (UTC 2008-12-04)
Audio
ID: 1
Format: AC-3
Format/Info: Audio Coding 3
Mode extension: CM (complete main)
Format settings, Endianness: Big
Codec ID: 2000
Duration: 1h 27mn
Bit rate mode: Constant
Bit rate: 384 Kbps
Channel(s): 6 channels
Channel positions: Front: L C R, Side: L R, LFE
Sampling rate: 48.0 KHz
Bit depth: 16 bits
Compression mode: Lossy
Stream size: 239 MiB (19%)
Alignment: Split accross interleaves
Interleave, duration: 42 ms (1.00 video frame)
Interleave, preload duration: 500 msTorrent downloaded from PublicHash.com
						
And.Now.a.Word.from.Our.Sponsor.2013.HDRip.XVID.AC3.HQ.Hive-PublicHash/And.Now.a.Word.from.Our.Sponsor.2013.HDRip.XVID.AC3.HQ.Hive-CM8.avi 1.301 GB
And.Now.a.Word.from.Our.Sponsor.2013.HDRip.XVID.AC3.HQ.Hive-PublicHash/And.Now.a.Word.from.Our.Sponsor.2013.HDRip.XVID.AC3.HQ.Hive-CM8.nfo 4.411 KB
And.Now.a.Word.from.Our.Sponsor.2013.HDRip.XVID.AC3.HQ.Hive-PublicHash/Torrent downloaded from PublicHash.com.txt 151 B
Gathering some info...

Register and log in Isohunt and see no captcha anymore!

4000 symbols left
Hash 06e4ff190ad5a2bd60fcb7725f17d4dabc4f4194

Related torrents for "And.Now.a.Word.from.Our.Sponsor.2013.HDRip.XVID.AC3.HQ.Hive-PublicHash"

Torrent search:

hd 2013