imdb
rating

7.3
Iron Man 3

Iron Man 3 (2013)

Action, Adventure, Science Fiction

Full description

IRON MAN 3 2013 PROPER HD RIP X264 AAC RUSS$MURDER$

Size 634.87 MB   5 seeders     Added 2013-05-09 05:58:36

Stream torrent
Starting‥ You need BitLord! Get it from 1BitLord.com
To download or stream you need BitLord. Visit them at BitLord.com
							General
Complete name : \IRON MAN 3 2013 PROPER HD RIP X264 AAC RUSS$MURDER$.mkv
Format : Matroska
Format version : Version 4 / Version 2
File size : 596 MiB
Duration : 2h 13mn
Overall bit rate : 624 Kbps
Encoded date : UTC 2013-05-08 22:45:18

Video
ID : 1
Format : AVC
Format/Info : Advanced Video Codec
Format profile : High@L3.0
Format settings, CABAC : Yes
Format settings, ReFrames : 4 frames
Codec ID : V_MPEG4/ISO/AVC
Duration : 2h 13mn
Bit rate : 555 Kbps
Width : 720 pixels
Height : 304 pixels
Display aspect ratio : 16:9
Frame rate mode : Variable
Frame rate : 29.970 fps
Color space : YUV
Chroma subsampling : 4:2:0
Bit depth : 8 bits
Scan type : Progressive
Bits/(Pixel*Frame) : 0.085
Stream size : 523 MiB (88%)
Writing library : x264 core 
Default : Yes
Forced : No

Audio
ID : 2
Format : MPEG Audio
Format version : Version 1
Format profile : Layer 3
Codec ID : A_MPEG/L3
Codec ID/Hint : MP3
Duration : 2h 13mn
Bit rate mode : Constant
Bit rate : 64.0 Kbps
Channel(s) : 1 channel
Sampling rate : 44.1 KHz
Compression mode : Lossy
Delay relative to video : -58ms
Stream size : 61.1 MiB (10%)
Default : Yes
Forced : No
SCREENZ
IRON MAN 3 2013 PROPER HD RIP X264 AAC RUSS$MURDER$/IRON MAN 3 2013 PROPER HD RIP X264 AAC RUSS$MURDER$.mkv 625.202 MB
IRON MAN 3 2013 PROPER HD RIP X264 AAC RUSS$MURDER$/SAMPLE.ts 6.228 MB
IRON MAN 3 2013 PROPER HD RIP X264 AAC RUSS$MURDER$/vlcsnap-2013-05-08-23h41m37s23.png 530.121 KB
Gathering some info...

Register and log in Isohunt and see no captcha anymore!

4000 symbols left
Hash 8c694a20de977ae712ac722d713069e346828ed0

Related torrents for "IRON MAN 3 2013 PROPER HD RIP X264 AAC RUSS$MURDER$"

Torrent search:

x264 hd 2013