imdb
rating

7.8
Grimm

Grimm (2011)

Drama, Fantasy, Mystery

Full description

Grimm S02E20 Kiss of the Muse HDTV 720p 1280X720 mpg4

Size 552.889 MB   0 seeders     Added 2013-05-09 06:39:35

Stream torrent
Starting‥ You need BitLord! Get it from 1BitLord.com
To download or stream you need BitLord. Visit them at BitLord.com
							Kiss of the Muse
Juliette's attempts to reconcile with Nick go awry when he falls under the influence of a Wesen that can inspire men... and drive them mad with obsession. Meanwhile, Eddie and Rosalee help Juliette remember her past with Nick.
General
Complete name : Grimm S02E20 Kiss of the Muse HDTV 720p 1280X720.mp4
Format : MPEG-4
Format profile : Base Media
Codec ID : isom
File size : 524 MiB
Duration : 43mn 41s
Overall bit rate : 1 678 Kbps
Writing application : Lavf54.59.106
Video
ID : 1
Format : AVC
Format/Info : Advanced Video Codec
Format profile : High@L3.1
Format settings, CABAC : Yes
Format settings, ReFrames : 5 frames
Codec ID : avc1
Codec ID/Info : Advanced Video Coding
Duration : 43mn 41s
Bit rate mode : Variable
Bit rate : 1 543 Kbps
Width : 1 280 pixels
Height : 720 pixels
Display aspect ratio : 16:9
Frame rate mode : Variable
Frame rate : 23.976 fps
Minimum frame rate : 1.328 fps
Maximum frame rate : 1 000.000 fps
Color space : YUV
Chroma subsampling : 4:2:0
Bit depth : 8 bits
Scan type : Progressive
Bits/(Pixel*Frame) : 0.070
Stream size : 482 MiB (92%)
Audio
ID : 2
Format : AAC
Format/Info : Advanced Audio Codec
Format profile : LC
Codec ID : 40
Duration : 43mn 41s
Bit rate mode : Constant
Bit rate : 128 Kbps
Channel(s) : 2 channels
Channel positions : Front: L R
Sampling rate : 48.0 KHz
Compression mode : Lossy
Stream size : 40.0 MiB (8%)
Grimm S02E20 Kiss of the Muse HDTV 720p 1280X720 mpg4/Grimm S02E20 Kiss of the Muse HDTV 720p 1280X720.mp4 549.649 MB
Grimm S02E20 Kiss of the Muse HDTV 720p 1280X720 mpg4/vlcsnap-2013-05-08-18h18m26s190.png 1.206 MB
Grimm S02E20 Kiss of the Muse HDTV 720p 1280X720 mpg4/vlcsnap-2013-05-08-18h23m46s106.png 1.138 MB
Gathering some info...

Register and log in Isohunt and see no captcha anymore!

4000 symbols left
Hash 4f247627a5568fd11d515fdb1f82fbdf2ea30c68

Related torrents for "Grimm S02E20 Kiss of the Muse HDTV 720p 1280X720 mpg4"

Torrent search:

season 02 hdtv hd episode 20 2013