imdb
rating

7.3
Iron Man 3

Iron Man 3 (2013)

Action, Adventure, Science Fiction

Full description

2013 Iron Man 3.720p.R6.WEBscr.x264.AAC-44pdcom

Size 1.379 GB   0 seeders     Added 2013-05-09 07:50:33

Stream torrent
Starting‥ You need BitLord! Get it from BitLord.com
To download or stream you need BitLord. Visit them at BitLord.com
NOTE:
1.China version 【with added about 4 minutes scenes for China ,totally can be ignored! 】
2.Audio:chinese
3.NO SUB
4.With a chinese website【"四四频道44pd.com"】 watermark all the time!
5."shit"RMVB,Not AVI.
5.Nice looking video ,sadly the audio is Chinese,well hope someone syncs this to the 
english Line .If you understand Chinese then enjoy this !
Format : RealMedia
File size : 1.28 GiB
Duration : 2h 13mn
Overall bit rate : 1 348 Kbps
Video
ID : 1
Format : RealVideo 4
Codec ID : RV40
Codec ID/Info : Based on AVC (H.264), Real Player 9
Duration : 2h 13mn
Bit rate : 1 284 Kbps
Width : 1 280 pixels
Height : 720 pixels
Display aspect ratio : 16:9
Frame rate : 29.970 fps
Bits/(Pixel*Frame) : 0.046
Stream size : 1.20 GiB (93%)
Audio
ID : 0
Format : Cooker
Codec ID : cook
Codec ID/Info : Based on G.722.1, Real Player 6
Duration : 2h 13mn
Bit rate : 64.1 Kbps
Channel(s) : 2 channels
Sampling rate : 44.1 KHz
Bit depth : 16 bits
Stream size : 61.1 MiB (5%)
2013 Iron Man 3.720p.R6.WEBscr.x264.AAC-44pdcom/2013 Iron Man 3.720p.R6.WEBscr.x264.AAC-44pdcom.rmvb 1.378 GB
2013 Iron Man 3.720p.R6.WEBscr.x264.AAC-44pdcom/22.png 498.957 KB
2013 Iron Man 3.720p.R6.WEBscr.x264.AAC-44pdcom/11.png 486.895 KB
Gathering some info...

Register and log in Isohunt and see no captcha anymore!

4000 symbols left
Hash 3a17cbb86d1583df1397a76cb121c00b70b095f4

Related torrents for "2013 Iron Man 3.720p.R6.WEBscr.x264.AAC-44pdcom"

Torrent search:

x264 hd dvd 2013