imdb
rating

4.3
The Mirror

The Mirror (2014)

Horror

Full description
quality   dvdrip hd fullhd x264

Lil Wayne Ft. Bruno Mars - Mirror [Music Video] 720p [Sbyky].mp4

Size 55.945 MB   4 seeders     Added 2013-05-09 09:39:35

Stream torrent
Starting‥ You need BitLord! Get it from 1BitLord.com
To download or stream you need BitLord. Visit them at BitLord.com
							
General
Complete name : Lil Wayne Ft. Bruno Mars - Mirror [Music Video] 720p [Sbyky].mp4
Format : MPEG-4
Format profile : Base Media / Version 2
Codec ID : mp42
File size : 53.4 MiB
Duration : 4mn 2s
Overall bit rate mode : Variable
Overall bit rate : 1 849 Kbps
Encoded date : UTC 2013-04-08 06:32:08
Tagged date : UTC 2013-04-08 06:32:08
Video
ID : 1
Format : AVC
Format/Info : Advanced Video Codec
Format profile : High@L3.1
Format settings, CABAC : Yes
Format settings, ReFrames : 1 frame
Format settings, GOP : M=1, N=60
Codec ID : avc1
Codec ID/Info : Advanced Video Coding
Duration : 4mn 2s
Bit rate : 1 655 Kbps
Maximum bit rate : 5 861 Kbps
Width : 1 280 pixels
Height : 720 pixels
Display aspect ratio : 16:9
Frame rate mode : Constant
Frame rate : 23.976 fps
Color space : YUV
Chroma subsampling : 4:2:0
Bit depth : 8 bits
Scan type : Progressive
Bits/(Pixel*Frame) : 0.075
Stream size : 47.7 MiB (89%)
Tagged date : UTC 2013-04-08 06:32:13
Audio
ID : 2
Format : AAC
Format/Info : Advanced Audio Codec
Format profile : LC
Codec ID : 40
Duration : 4mn 2s
Bit rate mode : Variable
Bit rate : 192 Kbps
Maximum bit rate : 203 Kbps
Channel(s) : 2 channels
Channel positions : Front: L R
Sampling rate : 44.1 KHz
Compression mode : Lossy
Stream size : 5.54 MiB (10%)
Title : IsoMedia File Produced by Google, 5-11-2011
Encoded date : UTC 2013-04-08 06:32:11
Tagged date : UTC 2013-04-08 06:32:13
Shared By Sbyky
Lil Wayne Ft. Bruno Mars - Mirror [Music Video] 720p [Sbyky].mp4 55.945 MB
Gathering some info...

Register and log in Isohunt and see no captcha anymore!

4000 symbols left
Hash ddd251499508f9420bb1f920edb17763d6ad7ac9

Related torrents for "Lil Wayne Ft. Bruno Mars - Mirror [Music Video] 720p [Sbyky].mp4"

Torrent search:

hd