2 Chainz - I'm Different [Explicit] 720p [Sbyky].mp4

Size 80.265 MB   2 seeders     Added 2013-05-09 10:52:52

Stream torrent
Starting‥ You need BitLord! Get it from 1BitLord.com
To download or stream you need BitLord. Visit them at BitLord.com
General
Complete name : 2 Chainz - I'm Different [Explicit] 720p [Sbyky].mp4
Format : MPEG-4
Format profile : Base Media / Version 2
Codec ID : mp42
File size : 76.5 MiB
Duration : 3mn 36s
Overall bit rate mode : Variable
Overall bit rate : 2 962 Kbps
Encoded date : UTC 2013-04-08 10:00:27
Tagged date : UTC 2013-04-08 10:00:27
Video
ID : 1
Format : AVC
Format/Info : Advanced Video Codec
Format profile : [email protected]
/*  */

Format settings, CABAC : Yes
Format settings, ReFrames : 1 frame
Codec ID : avc1
Codec ID/Info : Advanced Video Coding
Duration : 3mn 36s
Bit rate : 2 768 Kbps
Maximum bit rate : 5 666 Kbps
Width : 1 280 pixels
Height : 720 pixels
Display aspect ratio : 16:9
Frame rate mode : Constant
Frame rate : 23.976 fps
Color space : YUV
Chroma subsampling : 4:2:0
Bit depth : 8 bits
Scan type : Progressive
Bits/(Pixel*Frame) : 0.125
Stream size : 71.5 MiB (93%)
Tagged date : UTC 2013-04-08 10:00:29
Audio
ID : 2
Format : AAC
Format/Info : Advanced Audio Codec
Format profile : LC
Codec ID : 40
Duration : 3mn 36s
Bit rate mode : Variable
Bit rate : 192 Kbps
Maximum bit rate : 201 Kbps
Channel(s) : 2 channels
Channel positions : Front: L R
Sampling rate : 44.1 KHz
Compression mode : Lossy
Stream size : 4.96 MiB (6%)
Title : IsoMedia File Produced by Google, 5-11-2011
Encoded date : UTC 2013-04-08 10:00:28
Tagged date : UTC 2013-04-08 10:00:29
Shared By Sbyky
2 Chainz - I'm Different [Explicit] 720p [Sbyky].mp4 80.265 MB
Gathering some info...

Register and log in Isohunt and see no captcha anymore!

4000 symbols left
Hash eaf7f92bc1ea0234c276d33bf3c7c955b63a5405