One Direction - Kiss You [Music Video] 1080p [Sbyky].mp4

Size 119.319 MB   25 seeders     Added 2013-05-09 10:53:34

Stream torrent
Starting‥ You need BitLord! Get it from BitLord.com
To download or stream you need BitLord. Visit them at BitLord.com
General
Complete name : One Direction - Kiss You [Music Video] 1080p [Sbyky].mp4
Format : MPEG-4
Format profile : Base Media / Version 2
Codec ID : mp42
File size : 114 MiB
Duration : 3mn 10s
Overall bit rate mode : Variable
Overall bit rate : 5 024 Kbps
Encoded date : UTC 2013-04-08 08:19:22
Tagged date : UTC 2013-04-08 08:19:22
Video
ID : 1
Format : AVC
Format/Info : Advanced Video Codec
Format profile : [email protected]
/*  */

Format settings, CABAC : Yes
Format settings, ReFrames : 1 frame
Codec ID : avc1
Codec ID/Info : Advanced Video Coding
Duration : 3mn 10s
Bit rate : 4 829 Kbps
Maximum bit rate : 8 185 Kbps
Width : 1 920 pixels
Height : 1 080 pixels
Display aspect ratio : 16:9
Frame rate mode : Constant
Frame rate : 25.000 fps
Color space : YUV
Chroma subsampling : 4:2:0
Bit depth : 8 bits
Scan type : Progressive
Bits/(Pixel*Frame) : 0.093
Stream size : 109 MiB (96%)
Tagged date : UTC 2013-04-08 08:19:29
Audio
ID : 2
Format : AAC
Format/Info : Advanced Audio Codec
Format profile : LC
Codec ID : 40
Duration : 3mn 10s
Bit rate mode : Variable
Bit rate : 192 Kbps
Maximum bit rate : 202 Kbps
Channel(s) : 2 channels
Channel positions : Front: L R
Sampling rate : 44.1 KHz
Compression mode : Lossy
Stream size : 4.35 MiB (4%)
Title : IsoMedia File Produced by Google, 5-11-2011
Encoded date : UTC 2013-04-08 08:19:27
Tagged date : UTC 2013-04-08 08:19:29
Shared By Sbyky
One Direction - Kiss You [Music Video] 1080p [Sbyky].mp4 119.319 MB
Gathering some info...

Register and log in Isohunt and see no captcha anymore!

4000 symbols left
Hash 8681883ce7a3cc3270bb30c102d5344690044b9b

Related torrents for "One Direction - Kiss You [Music Video] 1080p [Sbyky].mp4"