imdb
rating

6.7
The Eye

The Eye (2002)

Horror

Full description
quality   dvdrip cam hd

My_Little_Eye_2002_Hindi_Dubbed_DVDRip.avi

Size 140.078 MB   0 seeders     Added 2013-05-09 12:16:08

Stream torrent
Starting‥ You need BitLord! Get it from BitLord.com
To download or stream you need BitLord. Visit them at BitLord.com
Movie :- My Little Eye ( 2002 )
Hindi Dubbed DVDRip
---------------------------------------------

---------------------------------------------

---------------------------------------------
Runtime : 91:26 Mins

Genre : Horror | Mystery | Thriller

Release Year : 4 October 2002 (UK)

IMDB Ratings : 5.7/10

Director : Marc Evans

Stars : Sean Cw Johnson , Kris Lemche and Stephen O'Reilly

Storyline :
Five young people apply to live in an isolated house together for six months whilst their every move is filmed by numerous cameras. Each has their reason for wanting to be there - fame, money, adventure. Theprize - $1 million. The rules - if one person leaves, everyone loses. It becomes the ultimate morality test. When Danny's beloved grandfather dies, does his greed overcome his love? When the skittish Emma finds blood on her pillow why does she still stay behind? And what dark secret does the house harbour that leaves them feeling as though they're being watched by more thanjust a million pairs of eyes?

Taglines :Fear Is Not Knowing. Terror Is Finding Out.

Motion Picture Rating ( MPAA ) :
Rated R for strong violence and sexuality, pervasive language and some drug use





General
Complete name : My_Little_Eye_2002_Hindi_Dubbed_DVDRip.avi
Format : AVI
Format/Info : Audio Video Interleave
File size : 134 MiB
Duration : 1h 31mn
Overall bit rate : 204 Kbps
Writing application : MEncoder VERSION
Writing library : MPlayer

Video
ID : 0
Format : MPEG-4 Visual
Format profile : Advanced Simple@L5
Format settings, BVOP : 2
Format settings, QPel : No
Format settings, GMC : No warppoints
Format settings, Matrix : Default (H.263)
Codec ID : XVID
Codec ID/Hint : XviD
Duration : 1h 31mn
Bit rate : 160 Kbps
Width : 320 pixels
Height : 240 pixels
Display aspect ratio : 1.85:1
Original display aspect ratio : 4:3
Frame rate : 25.000 fps
Color space : YUV
Chroma subsampling : 4:2:0
Bit depth : 8 bits
Scan type : Progressive
Compression mode : Lossy
Bits/(Pixel*Frame) : 0.083
Stream size : 105 MiB (78%)
Writing library : XviD 1.2.1 (UTC 2008-12-04)

Audio
ID : 1
Format : MPEG Audio
Format version : Version 2
Format profile : Layer 3
Codec ID : 55
Codec ID/Hint : MP3
Duration : 1h 31mn
Bit rate mode : Constant
Bit rate : 32.0 Kbps
Channel(s) : 1 channel
Sampling rate : 22.05 KHz
Compression mode : Lossy
Delay relative to video : 80ms
Stream size : 20.9 MiB (16%)
Alignment : Aligned on interleaves
Interleave, duration : 26 ms (0.65 video frame)
Interleave, preload duration : 522 ms



[img]image[/img]




[img]image[/img]





[img]image[/img]





[img]image[/img]




[img]image[/img]






[img]image[/img]






[img]image[/img]






[img]image[/img]
My_Little_Eye_2002_Hindi_Dubbed_DVDRip.avi 140.078 MB
Gathering some info...

Register and log in Isohunt and see no captcha anymore!

4000 symbols left
Hash f6da2eeaaddd5f522aa6d0a3fbb45317507c0fbe

Related torrents for "My_Little_Eye_2002_Hindi_Dubbed_DVDRip.avi"